<?xml version="1.0" standalone="no"?>
<!DOCTYPE svg PUBLIC "-//W3C//DTD SVG 1.1//EN" "http://www.w3.org/Graphics/SVG/1.1/DTD/svg11.dtd" >
<svg xmlns="http://www.w3.org/2000/svg">
<metadata>
Generated by SVGconv.
Copyright   : Copyright  2009 ParaType Ltd. All rights reserved.
Designer    : A.Korolkova, O.Umpeleva, V.Yefimov
Foundry     : ParaType Ltd
Foundry URL : http://www.paratype.com
</metadata>
<defs>
<font id="PTSans-Bold" horiz-adv-x="534" >
<font-face units-per-em="1000" ascent="1018" descent="276" />
<missing-glyph horiz-adv-x="750" />
<glyph unicode="&#13;" horiz-adv-x="253" />
<glyph unicode="&#32;" horiz-adv-x="253" />
<glyph unicode="&#33;" horiz-adv-x="294" d="M100 700h134v-329l-26 -163h-82l-26 163zM86 66q0 35 22 55.5q22 20.5 58 20.5q38 0 60 -20.5q22 -20.5 22 -55.5q0 -35 -22 -56q-22 -21 -60 -21q-36 0 -58 21t-22 56z" />
<glyph unicode="&#34;" horiz-adv-x="402" d="M90 700h114l-36 -216h-78zM238 700h114l-36 -216l-78 0z" />
<glyph unicode="&#35;" horiz-adv-x="567" d="M289 205h-89l-36 -154h-107l36 154h-74l22 97h75l25 106h-72l22 97h73l35 144h106l-34 -144h89l35 144h106l-34 -144h72l-25 -97h-70l-25 -106h69l-24 -97h-68l-36 -154h-107zM223 302h89l25 106l-89 0z" />
<glyph unicode="&#36;" horiz-adv-x="567" d="M238 -13q-57 2 -100 12q-43 10 -67 23l39 113q18 -11 50.5 -21q32.5 -10 77.5 -14l0 205q-31 14 -61.5 31q-30.5 17 -54.5 41q-24 24 -38.5 57.5q-14.5 33.5 -14.5 79.5q0 86 45.5 133.5q45.5 47.5 123.5 61.5l0 91h104v-87q44 -3 77 -12q33 -9 61 -21l-36 -111q-17 8 -43 16q-26 8 -59 12l0 -187q31 -14 62.5 -31.5q31.5 -17.5 56 -41.5q24.5 -24 40 -56.5q15.5 -32.5 15.5 -77.5q0 -92 -46.5 -143.5q-46.5 -51.5 -127.5 -66.5l0 -93h-104zM386 188q0 32 -25.5 52.5q-25.5 20.5 -61.5 37.5l0 -178q44 5 65.5 28q21.5 23 21.5 60zt0 0zM199 525q0 -30 23.5 -50q23.5 -20 58.5 -37l0 162q-47 -2 -64.5 -23t-17.5 -52z" />
<glyph unicode="&#37;" horiz-adv-x="840" d="M51 542q0 45 13 77q13 32 36 53q23 21 55.5 30.5q32.5 9.5 70.5 9.5q38 0 70 -9q32 -9 55.5 -29q23.5 -20 36.5 -52.5q13 -32.5 14 -79.5q-1 -47 -14 -79.5q-13 -32.5 -36.5 -52.5q-23.5 -20 -55.5 -29q-32 -9 -70 -9q-38 0 -70.5 9q-32.5 9 -55.5 29q-23 20 -36 52.5q-13 32.5 -13 79.5zt0 0zM167 542q0 -86 59 -86q31 0 44.5 18.5q13.5 18.5 14.5 67.5q-1 48 -14.5 67q-13.5 19 -44.5 19q-31 0 -45 -19q-14 -19 -14 -67zt0 0zM457 170q0 45 13 77q13 32 36 53q23 21 55.5 30.5q32.5 9.5 70.5 9.5q38 0 70 -9q32 -9 55.5 -29q23.5 -20 36.5 -52.5q13 -32.5 14 -79.5q-1 -47 -14 -79.5q-13 -32.5 -36.5 -52.5q-23.5 -20 -55.5 -29q-32 -9 -70 -9q-38 0 -70.5 9q-32.5 9 -55.5 29q-23 20 -36 52.5q-13 32.5 -13 79.5zt0 0zM573 170q0 -86 59 -86q31 0 44.5 18.5q13.5 18.5 14.5 67.5q-1 48 -14.5 67q-13.5 19 -44.5 19q-31 0 -45 -19q-14 -19 -14 -67zt0 0zM677 714l73 -66l-576 -662l-73 69z" />
<glyph unicode="&#38;" horiz-adv-x="814" d="M92 194q0 38 12.5 72.5q12.5 34.5 35 64.5q22.5 30 53.5 56q31 26 67 46q-25 33 -41 67q-16 34 -16 72q0 25 9.5 50.5q9.5 25.5 30 46q20.5 20.5 53.5 33q33 12.5 80 12.5q46 0 78.5 -11q32.5 -11 52.5 -29q20 -18 29 -41q9 -23 9 -47q0 -41 -29 -85.5q-29 -44.5 -99 -85.5q35 -54 70 -99q35 -45 78 -89q23 25 41.5 62.5q18.5 37.5 32.5 76.5l94 -50q-6 -18 -16.5 -39.5q-10.5 -21.5 -23 -43.5q-12.5 -22 -25.5 -41.5q-13 -19.5 -24 -33.5q32 -29 56 -45.5q24 -16.5 49 -30.5l-69 -96q-28 13 -57.5 34.5q-29.5 21.5 -58.5 49.5q-36 -33 -90 -58.5q-54 -25.5 -133 -25.5q-52 0 -97.5 14q-45.5 14 -79 41q-33.5 27 -53 65.5q-19.5 38.5 -19.5 87.5zt0 0zM486 149q-51 53 -93 105.5q-42 52.5 -73 99.5q-48 -37 -73 -71.5q-25 -34.5 -25 -77.5q0 -51 37.5 -80q37.5 -29 98.5 -29q40 0 75 16.5q35 16.5 53 36.5zt0 0zM333 566q0 -42 36 -90q39 25 56.5 47q17.5 22 17.5 42q0 24 -13.5 38q-13.5 14 -43.5 14q-27 0 -40 -14t-13 -37z" />
<glyph unicode="&#39;" horiz-adv-x="254" d="M90 700h114l-36 -216l-78 0z" />
<glyph unicode="&#40;" horiz-adv-x="327" d="M227 -220q-46 48 -78 105.5q-32 57.5 -51.5 118q-19.5 60.5 -28.5 122q-9 61.5 -9 117.5q0 55 9 116q9 61 29 122.5q20 61.5 52.5 120.5q32.5 59 79.5 110l84 -54q-35 -47 -58.5 -98q-23.5 -51 -38 -104.5q-14.5 -53.5 -21 -107.5q-6.5 -54 -6.5 -105q0 -48 7 -102q7 -54 22 -107.5q15 -53.5 39 -104.5q24 -51 58 -93z" />
<glyph unicode="&#41;" horiz-adv-x="327" d="M97 712q48 -48 80 -105.5q32 -57.5 51.5 -118q19.5 -60.5 28.5 -122q9 -61.5 10 -119.5q-1 -53 -10 -114q-9 -61 -29 -122.5q-20 -61.5 -52.5 -120.5q-32.5 -59 -75.5 -110l-89 56q38 49 62 100.5q24 51.5 38 104q14 52.5 19.5 105q5.5 52.5 6.5 97.5q-1 54 -8.5 107.5q-7.5 53.5 -22.5 107q-15 53.5 -38.5 104q-23.5 50.5 -54.5 96.5z" />
<glyph unicode="&#42;" horiz-adv-x="378" d="M144 731l28 -46l15 -59l15 55l28 49l64 -35l-30 -52l-48 -43l65 16h57v-73h-55l-61 16l50 -47l25 -42l-64 -37l-27 46l-20 64l-13 -58l-29 -49l-64 37l29 49l45 37l-55 -16h-59v74h60l59 -17l-51 44l-28 50z" />
<glyph unicode="&#43;" horiz-adv-x="527" d="M43 394h162v169h117v-169h163v-112h-163v-171h-117v171l-162 0z" />
<glyph unicode="&#44;" horiz-adv-x="252" d="M42 64q0 34 22.5 54q22.5 20 55.5 20q42 0 66 -28q24 -28 24 -74q0 -45 -14 -77.5q-14 -32.5 -34.5 -54q-20.5 -21.5 -44 -34q-23.5 -12.5 -42.5 -18.5l-38 54q27 11 47 36q20 25 22 53q-23 -3 -43.5 14t-20.5 55z" />
<glyph unicode="&#45;" horiz-adv-x="360" d="M54 345h251v-115l-251 0z" />
<glyph unicode="&#46;" horiz-adv-x="246" d="M42 66q0 35 22 55.5q22 20.5 58 20.5q38 0 60 -20.5q22 -20.5 22 -55.5q0 -35 -22 -56q-22 -21 -60 -21q-36 0 -58 21t-22 56z" />
<glyph unicode="&#47;" horiz-adv-x="408" d="M333 712l98 -44l-357 -808l-98 46z" />
<glyph unicode="&#48;" horiz-adv-x="567" d="M40 351q0 184 63 273.5q63 89.5 181 89.5q126 0 185 -88.5q59 -88.5 59 -274.5q0 -185 -63.5 -275q-63.5 -90 -181.5 -90q-125 0 -184 94.5q-59 94.5 -59 270.5zt0 0zM170 351q0 -122 26.5 -188.5q26.5 -66.5 87.5 -66.5q59 0 86.5 61q27.5 61 27.5 194q0 121 -26 187q-26 66 -89 66q-60 0 -86.5 -62t-26.5 -191z" />
<glyph unicode="&#49;" horiz-adv-x="567" d="M101 110h139v395l15 68l-48 -59l-89 -61l-55 75l228 184h73v-602h136v-110l-399 0z" />
<glyph unicode="&#50;" horiz-adv-x="567" d="M475 529q0 -51 -18.5 -103q-18.5 -52 -47 -102q-28.5 -50 -63 -96.5q-34.5 -46.5 -67.5 -85.5l-53 -41v-5l72 14h192v-110h-421v67q24 25 54 58.5q30 33.5 60.5 71q30.5 37.5 59.5 77.5q29 40 52 80.5q23 40.5 36.5 78.5q13.5 38 13.5 72q0 41 -23.5 67.5q-23.5 26.5 -74.5 26.5q-32 0 -65.5 -13.5q-33.5 -13.5 -56.5 -34.5l-52 92q39 32 88.5 51.5q49.5 19.5 116.5 19.5q43 0 79 -12q36 -12 62 -35q26 -23 41 -57.5t15 -80.5z" />
<glyph unicode="&#51;" horiz-adv-x="567" d="M241 96q62 0 94.5 33q32.5 33 32.5 80q0 57 -34 84q-34 27 -107 27h-72v69l121 165l57 45l-79 -9h-168v110h382v-71l-141 -189l-44 -27v-5l42 6q35 -3 66.5 -16q31.5 -13 55 -37.5q23.5 -24.5 37.5 -60.5q14 -36 14 -83q0 -59 -19.5 -102q-19.5 -43 -54 -72q-34.5 -29 -80.5 -43q-46 -14 -99 -14q-44 0 -91 8q-47 8 -76 23l35 108q26 -13 57.5 -21t70.5 -8z" />
<glyph unicode="&#52;" horiz-adv-x="567" d="M553 195h-110v-195h-121v195h-303v74l317 436h107v-406h110zM322 452l9 84h-4l-34 -72l-104 -135l-50 -38l64 8l119 0z" />
<glyph unicode="&#53;" horiz-adv-x="567" d="M220 101q66 0 101 32q35 32 35 88q0 60 -41 88q-41 28 -117 28l-79 -3v366h344v-122h-232v-135l41 4q49 -2 88.5 -18q39.5 -16 67.5 -44.5q28 -28.5 43 -69q15 -40.5 15 -90.5q0 -59 -20 -104q-20 -45 -55.5 -75q-35.5 -30 -83.5 -45q-48 -15 -105 -15q-45 0 -85.5 7.5q-40.5 7.5 -68.5 20.5l35 108q23 -10 50.5 -15.5t66.5 -5.5z" />
<glyph unicode="&#54;" horiz-adv-x="567" d="M520 217q0 -49 -16.5 -91q-16.5 -42 -46.5 -73q-30 -31 -72.5 -49q-42.5 -18 -93.5 -18q-52 0 -95.5 16.5q-43.5 16.5 -75.5 49.5q-32 33 -50 83q-18 50 -18 116q0 99 28.5 179q28.5 80 77 139.5q48.5 59.5 113 96q64.5 36.5 136.5 48.5l29 -103q-50 -8 -92 -31q-42 -23 -74.5 -55q-32.5 -32 -55 -71.5q-22.5 -39.5 -31.5 -81.5q20 25 52 42.5q32 17.5 80 17.5q45 0 83 -14q38 -14 65 -41.5q27 -27.5 42 -67.5q15 -40 15 -92zt0 0zM394 210q0 112 -110 112q-40 0 -67.5 -18q-27.5 -18 -38.5 -42q-2 -11 -2 -19q0 -8 0 -16q0 -24 7 -47.5q7 -23.5 20.5 -42q13.5 -18.5 34.5 -30q21 -11.5 50 -11.5q47 0 76.5 32t29.5 82z" />
<glyph unicode="&#55;" horiz-adv-x="567" d="M104 0l229 539l44 49l-60 -10h-257v122h451v-38l-280 -662z" />
<glyph unicode="&#56;" horiz-adv-x="567" d="M61 171q0 35 9 62.5q9 27.5 25.5 50q16.5 22.5 39 40.5q22.5 18 48.5 33q-49 31 -77 71.5q-28 40.5 -28 100.5q0 39 14.5 73q14.5 34 42 59q27.5 25 66.5 39q39 14 88 14q45 0 82 -12q37 -12 63.5 -34q26.5 -22 41 -53.5q14.5 -31.5 14.5 -69.5q0 -59 -26.5 -100q-26.5 -41 -77.5 -75q60 -35 90.5 -77q30.5 -42 30.5 -108q0 -45 -16.5 -81.5q-16.5 -36.5 -46.5 -62.5q-30 -26 -72 -40.5q-42 -14.5 -92 -14.5q-50 0 -90.5 13.5q-40.5 13.5 -69 37.5q-28.5 24 -44 58q-15.5 34 -15.5 76zt0 0zM383 184q0 23 -11 42q-11 19 -28.5 34.5q-17.5 15.5 -39 28.5q-21.5 13 -43.5 25q-47 -27 -64.5 -58.5q-17.5 -31.5 -17.5 -62.5q0 -40 27.5 -68.5q27.5 -28.5 76.5 -28.5q45 0 72.5 22q27.5 22 27.5 66zt0 0zM202 527q0 -24 9 -42q9 -18 24.5 -31.5q15.5 -13.5 35 -25q19.5 -11.5 40.5 -21.5q60 51 60 112q0 42 -24.5 63.5q-24.5 21.5 -59.5 21.5q-44 0 -64.5 -23t-20.5 -54z" />
<glyph unicode="&#57;" horiz-adv-x="567" d="M45 481q0 51 15.5 94q15.5 43 45 73.5q29.5 30.5 72 48q42.5 17.5 97.5 17.5q113 0 177.5 -67.5q64.5 -67.5 64.5 -196.5q0 -116 -29.5 -200.5q-29.5 -84.5 -79 -141q-49.5 -56.5 -114.5 -86.5q-65 -30 -137 -36l-28 102q55 7 98 27q43 20 74 49.5q31 29.5 50.5 67q19.5 37.5 27.5 80.5q-24 -26 -51.5 -36q-27.5 -10 -73.5 -10q-38 0 -75.5 13q-37.5 13 -67 39.5q-29.5 26.5 -48 67q-18.5 40.5 -18.5 95.5zt0 0zM171 488q0 -57 32 -86q32 -29 80 -29q41 0 67 13q26 13 40 32q3 21 3 40q0 28 -7 55q-7 27 -21.5 48q-14.5 21 -37 33.5q-22.5 12.5 -53.5 12.5q-49 0 -76 -31.5t-27 -87.5z" />
<glyph unicode="&#58;" horiz-adv-x="269" d="M93 428q0 35 22 55.5q22 20.5 58 20.5q38 0 60 -20.5q22 -20.5 22 -55.5q0 -35 -22 -56q-22 -21 -60 -21q-36 0 -58 21q-22 21 -22 56zt0 0zM93 66q0 35 22 55.5q22 20.5 58 20.5q38 0 60 -20.5q22 -20.5 22 -55.5q0 -35 -22 -56q-22 -21 -60 -21q-36 0 -58 21t-22 56z" />
<glyph unicode="&#59;" horiz-adv-x="290" d="M82 64q0 34 22.5 54q22.5 20 55.5 20q42 0 66 -28q24 -28 24 -74q0 -45 -14 -77.5q-14 -32.5 -34.5 -54q-20.5 -21.5 -44 -34q-23.5 -12.5 -42.5 -18.5l-38 54q27 11 47 36q20 25 22 53q-23 -3 -43.5 14q-20.5 17 -20.5 55zt0 0zM82 428q0 35 22 55.5q22 20.5 58 20.5q38 0 60 -20.5q22 -20.5 22 -55.5q0 -35 -22 -56q-22 -21 -60 -21q-36 0 -58 21t-22 56z" />
<glyph unicode="&#60;" horiz-adv-x="527" d="M40 285v70l386 231l57 -90l-224 -139l-91 -35l90 -31l230 -137l-57 -90z" />
<glyph unicode="&#61;" horiz-adv-x="527" d="M43 490h442v-112h-442zM43 298h442v-112l-442 0z" />
<glyph unicode="&#62;" horiz-adv-x="527" d="M487 365v-70l-386 -231l-57 91l224 138l91 36l-90 30l-230 138l57 89z" />
<glyph unicode="&#63;" horiz-adv-x="454" d="M136 208q-5 52 5 88.5q10 36.5 27.5 63q17.5 26.5 40 46q22.5 19.5 42 37.5q19.5 18 32.5 37.5q13 19.5 13 46.5q0 35 -19.5 56q-19.5 21 -69.5 21q-16 0 -34 -3.5q-18 -3.5 -36 -10q-18 -6.5 -34.5 -15q-16.5 -8.5 -29.5 -17.5l-50 96q38 26 87.5 43q49.5 17 119.5 17q94 0 147 -45.5q53 -45.5 53 -122.5q0 -51 -13.5 -84.5q-13.5 -33.5 -33.5 -57q-20 -23.5 -44 -41.5q-24 -18 -44 -38.5q-20 -20.5 -34 -47.5q-14 -27 -14 -69zM116 66q0 35 22 55.5q22 20.5 58 20.5q38 0 60 -20.5q22 -20.5 22 -55.5q0 -35 -22 -56q-22 -21 -60 -21q-36 0 -58 21t-22 56z" />
<glyph unicode="&#64;" horiz-adv-x="1059" d="M679 484h70l-48 -271q-8 -47 -0.5 -68q7.5 -21 33.5 -21q26 0 51 12q25 12 45 37q20 25 32.5 63q12.5 38 12.5 90q0 75 -25 128q-25 53 -68.5 87.5q-43.5 34.5 -102.5 50.5q-59 16 -127 16q-78 0 -145 -28q-67 -28 -116.5 -77q-49.5 -49 -77.5 -116.5q-28 -67.5 -28 -146.5q0 -78 23.5 -140q23.5 -62 68.5 -105.5q45 -43.5 111.5 -67q66.5 -23.5 152.5 -23.5q29 0 66 7q37 7 67 21l31 -96q-41 -20 -83.5 -28q-42.5 -8 -97.5 -8q-97 0 -179.5 28q-82.5 28 -143 83q-60.5 55 -94.5 136.5q-34 81.5 -34 188.5q0 109 39 197q39 88 105 150q66 62 153 95.5q87 33.5 184 33.5q92 0 171 -26.5q79 -26.5 137 -76q58 -49.5 91 -121q33 -71.5 33 -162.5q0 -64 -22.5 -120q-22.5 -56 -62 -97q-39.5 -41 -92 -65q-52.5 -24 -112.5 -24q-25 0 -46.5 5.5q-21.5 5.5 -36 18.5q-14.5 13 -21.5 34q-7 21 -4 52l-4 0q-15 -21 -32.5 -41q-17.5 -20 -38.5 -35.5q-21 -15.5 -46 -24.5q-25 -9 -55 -9q-24 0 -46 10.5q-22 10.5 -38 29.5q-16 19 -25.5 46q-9.5 27 -9.5 60q0 62 20 120.5q20 58.5 54.5 103.5q34.5 45 80 72.5q45.5 27.5 96.5 27.5q35 0 59 -10.5q24 -10.5 44 -27.5zM616 363q-13 11 -27 17q-14 6 -35 6q-30 0 -55.5 -17q-25.5 -17 -44 -44q-18.5 -27 -28.5 -60.5q-10 -33.5 -10 -65.5q0 -33 13.5 -54q13.5 -21 46.5 -21q14 0 30 8.5q16 8.5 31 22.5q15 14 29 32q14 18 25 38z" />
<glyph unicode="&#65;" horiz-adv-x="605" d="M405 155h-215l-53 -155h-137l252 705h101l252 -705h-144zM225 265h150l-52 156l-21 110h-5l-21 -111z" />
<glyph unicode="&#66;" horiz-adv-x="591" d="M531 537q0 -26 -6.5 -52q-6.5 -26 -21.5 -47.5q-15 -21.5 -39 -38q-24 -16.5 -58 -24.5l0 -6q30 -5 57 -17q27 -12 47 -33q20 -21 31.5 -51q11.5 -30 11.5 -71q0 -54 -23 -93.5q-23 -39.5 -61.5 -64.5q-38.5 -25 -87.5 -37q-49 -12 -101 -12q-17 0 -43.5 0q-26.5 0 -57 1.5q-30.5 1.5 -62 4.5q-31.5 3 -57.5 9l0 690q19 3 43.5 6q24.5 3 52.5 5q28 2 57.5 3q29.5 1 58.5 1q49 0 95.5 -7.5q46.5 -7.5 83 -26.5q36.5 -19 58.5 -53q22 -34 22 -86zt0 0zM281 103q25 0 48.5 6q23.5 6 41.5 18.5q18 12.5 29 31.5q11 19 11 45q0 33 -13 52q-13 19 -34 29.5q-21 10.5 -47 13.5q-26 3 -52 3h-73v-193q5 -2 16 -3q11 -1 23.5 -1.5q12.5 -0.5 26 -1q13.5 -0.5 23.5 -0.5zt0 0zM236 406q14 0 32.5 1q18.5 1 30.5 3q38 12 65.5 36q27.5 24 27.5 63q0 26 -10 43q-10 17 -26.5 27q-16.5 10 -37.5 14q-21 4 -44 4q-26 0 -48 -1q-22 -1 -34 -3l0 -187z" />
<glyph unicode="&#67;" horiz-adv-x="559" d="M534 29q-32 -23 -81.5 -33q-49.5 -10 -101.5 -10q-63 0 -119.5 19.5q-56.5 19.5 -99.5 63q-43 43.5 -68.5 113q-25.5 69.5 -25.5 168.5q0 103 28.5 172.5q28.5 69.5 74 112q45.5 42.5 101.5 61q56 18.5 112 18.5q60 0 101.5 -8q41.5 -8 68.5 -19v-116q-50 11 -81.5 16q-31.5 5 -76.5 5q-83 0 -133.5 -59q-50.5 -59 -50.5 -183q0 -54 12 -98.5q12 -44.5 36.5 -76q24.5 -31.5 61 -49q36.5 -17.5 84.5 -17.5q45 0 76 9q31 9 54 23z" />
<glyph unicode="&#68;" horiz-adv-x="647" d="M60 700q21 3 47.5 5q26.5 2 54.5 3q28 1 54.5 1.5q26.5 0.5 47.5 0.5q93 0 159 -26q66 -26 107 -73q41 -47 60 -112q19 -65 19 -143q0 -71 -18 -137q-18 -66 -60 -117q-42 -51 -110.5 -82q-68.5 -31 -169.5 -31q-16 0 -42.5 1q-26.5 1 -55 2.5q-28.5 1.5 -54.5 3q-26 1.5 -39 3.5zM275 588q-22 0 -44.5 -1q-22.5 -1 -33.5 -3l0 -469q4 -1 13.5 -1.5q9.5 -0.5 20.5 -1q11 -0.5 21 -1q10 -0.5 15 -0.5q58 0 96.5 20.5q38.5 20.5 61 54.5q22.5 34 31.5 78.5q9 44.5 9 91.5q0 41 -8 82.5q-8 41.5 -29.5 74.5q-21.5 33 -58.5 54t-94 21z" />
<glyph unicode="&#69;" horiz-adv-x="522" d="M60 700h415v-122h-278v-163h253v-122h-253v-171h283v-122l-420 0z" />
<glyph unicode="&#70;" horiz-adv-x="508" d="M60 700h415v-122h-278v-173h256v-122h-256v-283l-137 0z" />
<glyph unicode="&#71;" horiz-adv-x="609" d="M307 365h261v-312q-42 -35 -100.5 -51q-58.5 -16 -115.5 -16q-67 0 -124.5 21q-57.5 21 -99.5 65.5q-42 44.5 -66 113.5q-24 69 -24 164q0 99 28.5 168.5q28.5 69.5 75 113q46.5 43.5 104.5 63q58 19.5 118 19.5q60 0 105.5 -9q45.5 -9 72.5 -19l-28 -115q-25 10 -56 15.5q-31 5.5 -79 5.5q-43 0 -79 -13q-36 -13 -62.5 -42.5q-26.5 -29.5 -41 -75.5q-14.5 -46 -14.5 -112q0 -63 14 -108.5q14 -45.5 39 -75q25 -29.5 58.5 -43.5q33.5 -14 71.5 -14q26 0 51 6.5q25 6.5 42 19.5l0 132l-151 16z" />
<glyph unicode="&#72;" horiz-adv-x="651" d="M453 293h-256v-293h-137v700h137v-285h256v285h137v-700l-137 0z" />
<glyph unicode="&#73;" horiz-adv-x="285" d="M74 700h137v-700l-137 0z" />
<glyph unicode="&#74;" horiz-adv-x="334" d="M131 700h137v-512q0 -40 -9 -76q-9 -36 -29.5 -63.5q-20.5 -27.5 -52.5 -44q-32 -16.5 -78 -16.5q-29 0 -63 6q-34 6 -59 17l30 112q26 -13 59 -13q42 0 53.5 31q11.5 31 11.5 82z" />
<glyph unicode="&#75;" horiz-adv-x="620" d="M233 299h-36v-299h-137v700h137v-310l32 14l193 296h156l-204 -294l-54 -38l56 -39l233 -329l-169 0z" />
<glyph unicode="&#76;" horiz-adv-x="514" d="M503 0h-443v700h137v-578l306 0z" />
<glyph unicode="&#77;" horiz-adv-x="800" d="M603 363l15 139h-6l-43 -112l-149 -261h-44l-157 262l-44 111h-5l20 -138v-364h-130v700h125l187 -320l33 -80h4l30 82l177 318h124v-700l-137 0z" />
<glyph unicode="&#78;" horiz-adv-x="657" d="M234 365l-55 110h-5l16 -110v-365h-130v705h100l265 -373l53 -107h5l-16 107v368h130v-705l-100 0z" />
<glyph unicode="&#79;" horiz-adv-x="670" d="M38 350q0 175 77 269.5q77 94.5 220 94.5q75 0 131 -26q56 -26 93 -74q37 -48 55 -115q18 -67 18 -149q0 -175 -77.5 -269.5q-77.5 -94.5 -219.5 -94.5q-76 0 -132 26q-56 26 -92.5 74q-36.5 48 -54.5 115q-18 67 -18 149zt0 0zM182 350q0 -53 9 -97.5q9 -44.5 27.5 -76.5q18.5 -32 47.5 -50q29 -18 69 -18q73 0 113 57q40 57 40 185q0 51 -8.5 95q-8.5 44 -26.5 77q-18 33 -47 51.5q-29 18.5 -71 18.5q-73 0 -113 -58.5t-40 -183.5z" />
<glyph unicode="&#80;" horiz-adv-x="572" d="M60 693q42 8 92.5 12.5q50.5 4.5 100.5 4.5q52 0 104.5 -8.5q52.5 -8.5 94.5 -34q42 -25.5 68.5 -71q26.5 -45.5 26.5 -118.5q0 -66 -23 -111.5q-23 -45.5 -61 -74.5q-38 -29 -86.5 -42q-48.5 -13 -100.5 -13q-5 0 -16 0q-11 0 -23 0.5q-12 0.5 -23.5 1.5q-11.5 1 -16.5 2l0 -241h-137zM264 592q-20 0 -38 -1.5q-18 -1.5 -29 -3.5l0 -227q4 -1 12 -2q8 -1 17 -1.5q9 -0.5 17.5 -0.5q8.5 0 12.5 0q27 0 53.5 5q26.5 5 47.5 18.5q21 13.5 33.5 37.5q12.5 24 12.5 63q0 33 -12 54.5q-12 21.5 -31.5 34.5q-19.5 13 -44.5 18t-51 5z" />
<glyph unicode="&#81;" horiz-adv-x="670" d="M702 -202q-48 -13 -97 -13q-51 0 -99 10.5q-48 10.5 -93 22.5q-45 12 -87 22.5q-42 10.5 -79 10.5q-24 0 -46 -6l0 118q28 6 58 6q42 0 83.5 -10q41.5 -10 84.5 -21.5q43 -11.5 88 -21.5q45 -10 95 -10q22 0 45 2.5q23 2.5 47 8.5zM38 350q0 175 77 269.5q77 94.5 220 94.5q75 0 131 -26q56 -26 93 -74q37 -48 55 -115q18 -67 18 -149q0 -175 -77.5 -269.5q-77.5 -94.5 -219.5 -94.5q-76 0 -132 26q-56 26 -92.5 74q-36.5 48 -54.5 115q-18 67 -18 149zt0 0zM182 350q0 -53 9 -97.5q9 -44.5 27.5 -76.5q18.5 -32 47.5 -50q29 -18 69 -18q73 0 113 57q40 57 40 185q0 51 -8.5 95q-8.5 44 -26.5 77q-18 33 -47 51.5q-29 18.5 -71 18.5q-73 0 -113 -58.5t-40 -183.5z" />
<glyph unicode="&#82;" horiz-adv-x="602" d="M60 693q23 4 49.5 7.5q26.5 3.5 53 5.5q26.5 2 51.5 3q25 1 46 1q49 0 96.5 -9q47.5 -9 85 -31q37.5 -22 60 -60.5q22.5 -38.5 22.5 -96.5q0 -86 -40 -140q-40 -54 -107 -75l49 -31l160 -267h-158l-159 274l-72 13v-287h-137zM270 588q-21 0 -41.5 -1q-20.5 -1 -31.5 -4l0 -203h58q57 0 91 26q34 26 34 86q0 45 -28 70.5t-82 25.5z" />
<glyph unicode="&#83;" horiz-adv-x="530" d="M362 188q0 32 -23.5 52q-23.5 20 -59 36.5q-35.5 16.5 -77 34q-41.5 17.5 -77 43q-35.5 25.5 -59 63.5q-23.5 38 -23.5 97q0 51 17 88.5q17 37.5 48.5 62.5q31.5 25 74.5 37q43 12 96 12q61 0 115 -10.5q54 -10.5 89 -30.5l-43 -115q-22 14 -66 25.5q-44 11.5 -95 11.5q-48 0 -73.5 -19q-25.5 -19 -25.5 -51q0 -30 23.5 -50q23.5 -20 59 -37q35.5 -17 77 -35q41.5 -18 77 -43.5q35.5 -25.5 59 -63q23.5 -37.5 23.5 -93.5q0 -56 -18.5 -96.5q-18.5 -40.5 -52 -67.5q-33.5 -27 -81 -40q-47.5 -13 -104.5 -13q-75 0 -132 14q-57 14 -84 28l44 117q11 -6 28.5 -13q17.5 -7 39.5 -13q22 -6 46.5 -10q24.5 -4 50.5 -4q61 0 93.5 20.5t32.5 62.5z" />
<glyph unicode="&#84;" horiz-adv-x="568" d="M557 578h-204v-578h-137v578h-205v122l546 0z" />
<glyph unicode="&#85;" horiz-adv-x="627" d="M440 700h130v-452q0 -68 -18 -117q-18 -49 -50 -81q-32 -32 -78 -47q-46 -15 -101 -15q-266 0 -266 243v469h137v-442q0 -41 7.5 -69.5q7.5 -28.5 23.5 -46q16 -17.5 40 -25q24 -7.5 56 -7.5q63 0 91 35q28 35 28 113z" />
<glyph unicode="&#86;" horiz-adv-x="602" d="M290 289l18 -119h5l20 120l134 410h144l-260 -705h-98l-262 705l159 0z" />
<glyph unicode="&#87;" horiz-adv-x="862" d="M242 309l13 -124h4l14 126l122 389h90l120 -391l14 -124h4l15 126l85 389h139l-193 -705h-92l-125 389l-17 107h-5l-17 -108l-124 -388h-97l-192 705l149 0z" />
<glyph unicode="&#88;" horiz-adv-x="633" d="M225 356l-195 344h165l108 -202l24 -71l23 71l113 202h149l-202 -337l212 -363h-163l-123 216l-27 74l-26 -74l-124 -216l-149 0z" />
<glyph unicode="&#89;" horiz-adv-x="592" d="M228 260l-230 440h163l128 -263l14 -74h5l15 76l124 261h147l-229 -439v-261l-137 0z" />
<glyph unicode="&#90;" horiz-adv-x="539" d="M27 122l296 414l52 42h-348v122h485v-122l-298 -418l-51 -38h349v-122l-485 0z" />
<glyph unicode="&#91;" horiz-adv-x="324" d="M60 700h235v-110h-111v-710h111v-110l-235 0z" />
<glyph unicode="&#92;" horiz-adv-x="424" d="M438 -95l-99 -45l-363 808l102 43z" />
<glyph unicode="&#93;" horiz-adv-x="324" d="M264 -230h-235v110h111v710h-111v110l235 0z" />
<glyph unicode="&#94;" horiz-adv-x="500" d="M216 705h69l185 -292h-131l-71 122l-21 70l-25 -71l-78 -121l-124 0z" />
<glyph unicode="&#95;" horiz-adv-x="444" d="M0 -117h444v-107l-444 0z" />
<glyph unicode="&#96;" horiz-adv-x="316" d="M256 566h-72l-124 124v30l136 0z" />
<glyph unicode="&#97;" horiz-adv-x="496" d="M54 471q40 18 95 28.5q55 10.5 115 10.5q52 0 87 -12.5q35 -12.5 55.5 -35.5q20.5 -23 29 -55q8.5 -32 8.5 -72q0 -44 -3 -88.5q-3 -44.5 -3.5 -87.5q-0.5 -43 2.5 -83.5q3 -40.5 15 -76.5l-106 0l-21 69h-5q-20 -31 -55.5 -53.5q-35.5 -22.5 -91.5 -22.5q-35 0 -63 10.5q-28 10.5 -48 30q-20 19.5 -31 46q-11 26.5 -11 59.5q0 46 20.5 77.5q20.5 31.5 59 51q38.5 19.5 92 27q53.5 7.5 119.5 4.5q7 56 -8 80.5q-15 24.5 -67 24.5q-39 0 -82.5 -8q-43.5 -8 -71.5 -21zM219 99q39 0 62 17.5q23 17.5 34 37.5l0 65q-31 3 -59.5 1q-28.5 -2 -50.5 -9q-22 -7 -35 -20q-13 -13 -13 -33q0 -28 16.5 -43.5t45.5 -15.5z" />
<glyph unicode="&#98;" horiz-adv-x="536" d="M57 700h130v-240h4q21 24 54 38q33 14 73 14q90 0 137.5 -61.5q47.5 -61.5 47.5 -187.5q0 -135 -66.5 -205q-66.5 -70 -182.5 -70q-64 0 -117 10.5q-53 10.5 -80 23.5zM280 402q-36 0 -58.5 -18.5q-22.5 -18.5 -34.5 -53.5l0 -218q16 -8 34.5 -11q18.5 -3 39.5 -3q53 0 80.5 38.5q27.5 38.5 27.5 122.5q0 143 -89 143z" />
<glyph unicode="&#99;" horiz-adv-x="433" d="M411 31q-30 -22 -72.5 -33.5q-42.5 -11.5 -87.5 -11.5q-60 0 -101.5 19q-41.5 19 -67.5 53.5q-26 34.5 -37.5 83.5q-11.5 49 -11.5 108q0 127 57 195.5q57 68.5 166 68.5q55 0 88.5 -9q33.5 -9 60.5 -23l-31 -106q-23 11 -45.5 17q-22.5 6 -51.5 6q-54 0 -82 -35.5q-28 -35.5 -28 -113.5q0 -32 7 -59q7 -27 21 -47q14 -20 36.5 -31.5q22.5 -11.5 52.5 -11.5q33 0 56 8.5q23 8.5 41 20.5z" />
<glyph unicode="&#100;" horiz-adv-x="539" d="M482 176q0 -42 1 -84q1 -42 9 -93l-93 0l-18 65h-4q-20 -35 -57.5 -56.5q-37.5 -21.5 -88.5 -21.5q-94 0 -146 62q-52 62 -52 194q0 128 58 199q58 71 170 71q31 0 51 -3.5q20 -3.5 40 -11.5l0 203h130zM261 96q38 0 60 18.5q22 18.5 31 53.5l0 212q-14 11 -31 16.5q-17 5.5 -44 5.5q-55 0 -82.5 -37q-27.5 -37 -27.5 -127q0 -64 22.5 -103t71.5 -39z" />
<glyph unicode="&#101;" horiz-adv-x="508" d="M457 43q-30 -24 -81.5 -40.5q-51.5 -16.5 -109.5 -16.5q-121 0 -177 70.5q-56 70.5 -56 193.5q0 132 63 198q63 66 177 66q38 0 74 -10q36 -10 64 -33q28 -23 45 -62q17 -39 17 -97q0 -21 -2.5 -45q-2.5 -24 -7.5 -50l-300 0q3 -63 32.5 -95q29.5 -32 95.5 -32q41 0 73.5 12.5q32.5 12.5 49.5 25.5zM271 410q-51 0 -75.5 -30.5q-24.5 -30.5 -29.5 -81.5l186 0q4 54 -16.5 83t-64.5 29z" />
<glyph unicode="&#102;" horiz-adv-x="321" d="M11 500h69v28q0 95 40 137.5q40 42.5 116 42.5q80 0 133 -19l-25 -104q-23 8 -40.5 10.5q-17.5 2.5 -36.5 2.5q-20 0 -31.5 -6q-11.5 -6 -17 -18.5q-5.5 -12.5 -7 -31q-1.5 -18.5 -1.5 -42.5l110 0v-110h-110v-390h-130v390l-69 0z" />
<glyph unicode="&#103;" horiz-adv-x="536" d="M480 0q0 -109 -59 -160.5q-59 -51.5 -165 -51.5q-72 0 -113.5 10q-41.5 10 -62.5 21l27 103q23 -9 53.5 -18q30.5 -9 75.5 -9q68 0 92.5 29.5q24.5 29.5 24.5 82.5v32h-4q-35 -47 -124 -47q-97 0 -144.5 60q-47.5 60 -47.5 188q0 134 64 203q64 69 186 69q64 0 114.5 -9q50.5 -9 82.5 -21zM260 96q38 0 58.5 17q20.5 17 31.5 51l0 225q-31 13 -77 13q-50 0 -78 -37.5q-28 -37.5 -28 -119.5q0 -73 24 -111t69 -38z" />
<glyph unicode="&#104;" horiz-adv-x="545" d="M363 0v284q0 61 -17 88q-17 27 -62 27q-33 0 -60.5 -22.5q-27.5 -22.5 -36.5 -57.5l0 -319h-130v700h130v-256h4q24 32 59 51q35 19 89 19q38 0 67 -10q29 -10 48.5 -33q19.5 -23 29 -62.5q9.5 -39.5 9.5 -97.5l0 -311z" />
<glyph unicode="&#105;" horiz-adv-x="269" d="M67 500h130v-500h-130zM48 641q0 29 21.5 49.5q21.5 20.5 59.5 20.5q38 0 61.5 -20.5q23.5 -20.5 23.5 -49.5q0 -29 -23.5 -48.5q-23.5 -19.5 -61.5 -19.5q-38 0 -59.5 19.5t-21.5 48.5z" />
<glyph unicode="&#106;" horiz-adv-x="268" d="M69 500h130v-521q0 -91 -36 -139q-36 -48 -115 -48q-30 0 -64 7l0 109q4 0 7 -0.5q3 -0.5 6 -0.5q45 0 58.5 29q13.5 29 13.5 80zM50 641q0 29 21.5 49.5q21.5 20.5 59.5 20.5q38 0 61.5 -20.5q23.5 -20.5 23.5 -49.5q0 -29 -23.5 -48.5q-23.5 -19.5 -61.5 -19.5q-38 0 -59.5 19.5t-21.5 48.5z" />
<glyph unicode="&#107;" horiz-adv-x="491" d="M222 207h-35v-207h-130v700h130v-413l30 14l114 199h143l-120 -190l-51 -38l55 -39l135 -233l-149 0z" />
<glyph unicode="&#108;" horiz-adv-x="294" d="M191 168q0 -35 9 -51q9 -16 29 -16q12 0 23.5 2q11.5 2 28.5 9l14 -102q-16 -8 -49 -16q-33 -8 -68 -8q-57 0 -87 26.5q-30 26.5 -30 87.5v600l130 0z" />
<glyph unicode="&#109;" horiz-adv-x="805" d="M341 0v272q0 69 -13 98q-13 29 -54 29q-34 0 -55 -18.5q-21 -18.5 -32 -47.5l0 -333h-130v500h101l15 -66h4q23 32 58.5 56q35.5 24 91.5 24q48 0 78.5 -19.5q30.5 -19.5 47.5 -65.5q23 39 59 62q36 23 87 23q42 0 71.5 -10q29.5 -10 48 -34.5q18.5 -24.5 27.5 -65.5q9 -41 9 -104v-300h-130v281q0 59 -12.5 88.5q-12.5 29.5 -55.5 29.5q-35 0 -55.5 -19q-20.5 -19 -30.5 -52l0 -328z" />
<glyph unicode="&#110;" horiz-adv-x="545" d="M363 0v284q0 61 -17.5 88q-17.5 27 -59.5 27q-37 0 -62.5 -21.5q-25.5 -21.5 -36.5 -53.5l0 -324h-130v500h103l15 -66h4q23 32 61 56q38 24 98 24q37 0 66 -10q29 -10 49 -33q20 -23 30 -62.5q10 -39.5 10 -97.5l0 -311z" />
<glyph unicode="&#111;" horiz-adv-x="537" d="M33 250q0 127 62 195.5q62 68.5 174 68.5q60 0 104 -19q44 -19 73 -53.5q29 -34.5 43.5 -83.5q14.5 -49 14.5 -108q0 -127 -61.5 -195.5q-61.5 -68.5 -173.5 -68.5q-60 0 -104 19q-44 19 -73.5 53.5q-29.5 34.5 -44 83.5q-14.5 49 -14.5 108zt0 0zM167 250q0 -33 6 -61q6 -28 18 -49q12 -21 31.5 -32.5q19.5 -11.5 46.5 -11.5q51 0 76 37q25 37 25 117q0 69 -23 111.5q-23 42.5 -78 42.5q-48 0 -75 -36t-27 -118z" />
<glyph unicode="&#112;" horiz-adv-x="540" d="M57 500h95l15 -60h4q26 38 61.5 56q35.5 18 86.5 18q94 0 141 -59.5q47 -59.5 47 -191.5q0 -64 -15 -115.5q-15 -51.5 -44.5 -87.5q-29.5 -36 -72 -55q-42.5 -19 -97.5 -19q-31 0 -51 4.5q-20 4.5 -40 14.5l0 -205h-130zM280 404q-38 0 -59.5 -19q-21.5 -19 -33.5 -57l0 -208q14 -11 30.5 -17.5q16.5 -6.5 43.5 -6.5q56 0 84 39.5q28 39.5 28 130.5q0 66 -22 102t-71 36z" />
<glyph unicode="&#113;" horiz-adv-x="536" d="M480 -200h-130v243h-4q-17 -26 -46 -41.5q-29 -15.5 -75 -15.5q-93 0 -142.5 63q-49.5 63 -49.5 191q0 134 67.5 203q67.5 69 193.5 69q27 0 54 -2.5q27 -2.5 51.5 -7q24.5 -4.5 45.5 -10q21 -5.5 35 -10.5zM260 96q38 0 58.5 17q20.5 17 31.5 51l0 225q-15 8 -34 10.5q-19 2.5 -43 2.5q-53 0 -79.5 -40q-26.5 -40 -26.5 -117q0 -73 24 -111t69 -38z" />
<glyph unicode="&#114;" horiz-adv-x="351" d="M333 378q-31 11 -56 11q-35 0 -58.5 -18.5q-23.5 -18.5 -31.5 -47.5l0 -323h-130v500h101l15 -66h4q17 37 46 57q29 20 68 20q26 0 59 -11z" />
<glyph unicode="&#115;" horiz-adv-x="422" d="M264 138q0 20 -17 32q-17 12 -42 22q-25 10 -55 20.5q-30 10.5 -55 29q-25 18.5 -42 47q-17 28.5 -17 73.5q0 74 44 113q44 39 127 39q57 0 103 -12q46 -12 72 -27l-29 -94q-23 9 -58 19q-35 10 -71 10q-58 0 -58 -45q0 -18 17 -29q17 -11 42 -20.5q25 -9.5 55 -20.5q30 -11 55 -28.5q25 -17.5 42 -45.5q17 -28 17 -72q0 -76 -48.5 -119.5q-48.5 -43.5 -145.5 -43.5q-53 0 -99.5 13.5q-46.5 13.5 -75.5 31.5l36 97q23 -13 61 -25.5q38 -12.5 78 -12.5q29 0 46.5 11t17.5 37z" />
<glyph unicode="&#116;" horiz-adv-x="349" d="M5 500h69v94l130 37v-131h122v-110h-122v-192q0 -52 10.5 -74.5q10.5 -22.5 39.5 -22.5q20 0 34.5 4q14.5 4 32.5 12l23 -100q-27 -13 -63 -22q-36 -9 -73 -9q-69 0 -101.5 35.5q-32.5 35.5 -32.5 116.5v252l-69 0z" />
<glyph unicode="&#117;" horiz-adv-x="538" d="M182 500v-284q0 -61 14.5 -88q14.5 -27 56.5 -27q37 0 61.5 22q24.5 22 36.5 54l0 323h130v-348q0 -41 4 -80.5q4 -39.5 12 -71.5l-98 0l-23 74h-4q-23 -38 -64 -63q-41 -25 -97 -25q-38 0 -68 10q-30 10 -50 33q-20 23 -30.5 62q-10.5 39 -10.5 98l0 311z" />
<glyph unicode="&#118;" horiz-adv-x="477" d="M230 238l17 -77h5l14 79l85 260h140l-209 -505h-79l-217 505l151 0z" />
<glyph unicode="&#119;" horiz-adv-x="721" d="M419 500l91 -256l18 -83h4l14 84l64 255h119l-154 -505h-96l-101 280l-13 63h-5l-12 -64l-96 -279h-99l-161 505h141l73 -251l12 -89h5l17 90l83 250z" />
<glyph unicode="&#120;" horiz-adv-x="525" d="M170 256l-150 244h155l65 -107l28 -70l30 70l68 107h141l-151 -240l161 -260h-151l-77 120l-30 74l-32 -74l-77 -120l-142 0z" />
<glyph unicode="&#121;" horiz-adv-x="478" d="M239 219l18 -78h6l13 79l76 280h134l-152 -451q-19 -56 -36.5 -102.5q-17.5 -46.5 -38.5 -80.5q-21 -34 -46.5 -52.5q-25.5 -18.5 -60.5 -18.5q-52 0 -83 17l24 104q15 -6 30 -6q23 0 44.5 19.5q21.5 19.5 32.5 70.5l-209 500l156 0z" />
<glyph unicode="&#122;" horiz-adv-x="458" d="M31 110l197 237l51 43h-248v110h392v-110l-195 -241l-50 -39h245v-110l-392 0z" />
<glyph unicode="&#123;" horiz-adv-x="371" d="M123 96q0 51 -21 70q-21 19 -59 19l0 100q38 0 59 20.5q21 20.5 21 64.5v209q0 54 25.5 88q25.5 34 81.5 34h120v-110h-50q-27 0 -39.5 -14q-12.5 -14 -12.5 -46v-195q0 -44 -21 -66.5q-21 -22.5 -49 -27.5l0 -10q27 -4 48.5 -30q21.5 -26 21.5 -68v-194q0 -32 12 -46q12 -14 41 -14h49v-110h-120q-52 0 -79.5 31.5q-27.5 31.5 -27.5 89.5z" />
<glyph unicode="&#124;" horiz-adv-x="227" d="M60 700h107v-830l-107 0z" />
<glyph unicode="&#125;" horiz-adv-x="371" d="M261 375q0 -51 21 -70q21 -19 59 -19l0 -100q-38 0 -59 -20.5q-21 -20.5 -21 -64.5v-209q0 -54 -26.5 -88q-26.5 -34 -82.5 -34h-117v110h50q27 0 39.5 13.5q12.5 13.5 12.5 46.5v195q0 44 21 66.5q21 22.5 49 27.5l0 10q-27 4 -48.5 30q-21.5 26 -21.5 68v194q0 31 -12 45.5q-12 14.5 -41 14.5h-49v110h119q53 0 80 -31.5q27 -31.5 27 -89.5z" />
<glyph unicode="&#126;" horiz-adv-x="527" d="M28 378q47 38 84.5 52.5q37.5 14.5 69.5 14.5q29 0 54 -8.5q25 -8.5 48 -18q23 -9.5 45.5 -18q22.5 -8.5 45.5 -8.5q18 0 37 6q19 6 40 23l47 -103q-36 -27 -66 -38q-30 -11 -56 -11q-28 0 -52 9q-24 9 -46.5 20q-22.5 11 -45.5 20q-23 9 -49 9q-24 0 -51.5 -10.5q-27.5 -10.5 -60.5 -38.5z" />
<glyph unicode="&#160;" horiz-adv-x="253" />
<glyph unicode="&#161;" horiz-adv-x="293" d="M191 -200h-134v329l26 162h82l26 -162zM44 435q0 35 22 55.5q22 20.5 58 20.5q38 0 60 -20.5q22 -20.5 22 -55.5q0 -35 -22 -56q-22 -21 -60 -21q-36 0 -58 21t-22 56z" />
<glyph unicode="&#162;" horiz-adv-x="567" d="M489 31q-17 -13 -42.5 -22.5q-25.5 -9.5 -54.5 -14.5l0 -94h-121v89q-51 7 -86.5 28.5q-35.5 21.5 -58 55q-22.5 33.5 -32.5 78.5q-10 45 -10 99q0 112 48 178.5q48 66.5 139 81.5l0 90h121v-90q28 -4 50 -10.5q22 -6.5 40 -15.5l-30 -106q-15 7 -32 11q-17 4 -35 6l0 -291q23 3 41.5 10q18.5 7 32.5 15zM212 250q0 -51 19 -89.5q19 -38.5 64 -52.5l0 286q-42 -11 -62.5 -45.5t-20.5 -98.5z" />
<glyph unicode="&#163;" horiz-adv-x="567" d="M51 394h68q-13 24 -22.5 54q-9.5 30 -9.5 72q0 49 16.5 85.5q16.5 36.5 46 60.5q29.5 24 70.5 36q41 12 90 12q61 0 111 -11.5q50 -11.5 86 -28.5l-42 -116q-20 11 -55 22.5q-35 11.5 -84 11.5q-48 0 -75 -22.5q-27 -22.5 -27 -67.5q0 -34 12.5 -58.5q12.5 -24.5 27.5 -49.5l141 0v-107h-98q3 -17 3 -34q0 -30 -10 -63q-10 -33 -31 -54l-43 -31v-5l67 15h230v-115h-472v115h2q31 1 54.5 11q23.5 10 39 26.5q15.5 16.5 23.5 38.5q8 22 8 46q0 27 -6 50l-121 0z" />
<glyph unicode="&#164;" horiz-adv-x="567" d="M81 622l78 -77l19 -37q20 15 47.5 22.5q27.5 7.5 57.5 7.5q29 0 57.5 -7.5q28.5 -7.5 47.5 -21.5l20 36l78 77l77 -80l-77 -78l-37 -16q14 -21 20 -47.5q6 -26.5 6 -55.5q0 -30 -6.5 -56.5q-6.5 -26.5 -19.5 -44.5l37 -16l77 -78l-77 -80l-78 77l-18 37q-19 -14 -48.5 -22q-29.5 -8 -58.5 -8q-30 0 -57.5 7.5q-27.5 7.5 -47.5 21.5l-19 -36l-78 -77l-76 80l77 78l36 17q-12 21 -19 45.5q-7 24.5 -7 54.5q0 29 7.5 54q7.5 25 20.5 48l-38 17l-77 78zM201 346q0 -38 23 -62q23 -24 60 -24q37 0 59.5 24q22.5 24 22.5 62q0 36 -22.5 61q-22.5 25 -59.5 25q-37 0 -60 -25t-23 -61z" />
<glyph unicode="&#165;" horiz-adv-x="567" d="M85 337h90l-189 363h163l128 -263l14 -74h5l15 76l124 261h147l-190 -363h91v-80h-130v-58h130v-80h-130v-119h-137v119h-131v80h131v58l-131 0z" />
<glyph unicode="&#166;" horiz-adv-x="227" d="M60 213h107v-343h-107zM167 357h-107v343l107 0z" />
<glyph unicode="&#167;" horiz-adv-x="530" d="M49 353q0 31 15 60.5q15 29.5 41 52.5l41 14q-26 16 -43 40.5q-17 24.5 -17 65.5q0 56 43.5 92q43.5 36 131.5 36q59 0 110 -10q51 -10 78 -23l-32 -105q-23 11 -61 19.5q-38 8.5 -73 8.5q-37 0 -52 -11q-15 -11 -15 -28q0 -18 19.5 -28q19.5 -10 49 -18q29.5 -8 64 -18q34.5 -10 64 -28q29.5 -18 49 -48q19.5 -30 19.5 -78q0 -31 -14.5 -60q-14.5 -29 -40.5 -52l-45 -14q27 -16 45 -41q18 -25 18 -66q0 -63 -49 -95.5q-49 -32.5 -130 -32.5q-68 0 -113.5 13.5q-45.5 13.5 -74.5 29.5l34 100q23 -11 56 -22q33 -11 77 -11q37 0 53.5 9.5q16.5 9.5 16.5 30.5q0 19 -19.5 29.5q-19.5 10.5 -49 19q-29.5 8.5 -64 18.5q-34.5 10 -64 27.5q-29.5 17.5 -49 46.5q-19.5 29 -19.5 76zt0 0zM351 345q0 18 -8.5 30q-8.5 12 -24.5 21.5q-16 9.5 -39 17.5q-23 8 -52 17q-20 -12 -34 -31.5q-14 -19.5 -14 -44.5q0 -35 32 -52q32 -17 88 -33q22 12 37 32t15 43z" />
<glyph unicode="&#168;" horiz-adv-x="479" d="M60 651q0 32 19.5 51q19.5 19 51.5 19q32 0 50.5 -19q18.5 -19 18.5 -51q0 -30 -18.5 -49q-18.5 -19 -50.5 -19q-32 0 -51.5 19q-19.5 19 -19.5 49zt0 0zM279 651q0 32 18.5 51q18.5 19 50.5 19q32 0 51.5 -19q19.5 -19 19.5 -51q0 -30 -19.5 -49q-19.5 -19 -51.5 -19q-32 0 -50.5 19t-18.5 49z" />
<glyph unicode="&#169;" horiz-adv-x="833" d="M55 290q0 83 28 149.5q28 66.5 76.5 113.5q48.5 47 114.5 72.5q66 25.5 142 25.5q76 0 141.5 -25.5q65.5 -25.5 114.5 -72.5q49 -47 77 -113.5q28 -66.5 28 -149.5q0 -83 -28 -149.5q-28 -66.5 -77 -113.5q-49 -47 -114.5 -72.5q-65.5 -25.5 -141.5 -25.5q-83 0 -150 25.5q-67 25.5 -114 72.5q-47 47 -72 113.5q-25 66.5 -25 149.5zt0 0zM153 290q0 -62 19.5 -112q19.5 -50 55 -84.5q35.5 -34.5 83.5 -53q48 -18.5 105 -18.5q57 0 105.5 18.5q48.5 18.5 84 53q35.5 34.5 55 84.5q19.5 50 19.5 112q0 62 -19.5 112q-19.5 50 -55 84.5q-35.5 34.5 -84 53q-48.5 18.5 -105.5 18.5q-57 0 -105 -18.5q-48 -18.5 -83.5 -53q-35.5 -34.5 -55 -84.5q-19.5 -50 -19.5 -112zt0 0zM541 131q-22 -14 -55.5 -22.5q-33.5 -8.5 -71.5 -8.5q-81 0 -123.5 51q-42.5 51 -42.5 139q0 91 45.5 140.5q45.5 49.5 120.5 49.5q37 0 65.5 -8.5q28.5 -8.5 54.5 -23.5l-32 -87q-18 9 -32.5 12q-14.5 3 -28.5 3q-29 0 -46 -19q-17 -19 -17 -67q0 -86 70 -86q19 0 34 3.5q15 3.5 30 11.5z" />
<glyph unicode="&#170;" horiz-adv-x="420" d="M61 674q26 14 73.5 24q47.5 10 106.5 10q76 0 104 -27.5q28 -27.5 28 -84.5q0 -60 -3 -116q-3 -56 8 -100l-101 0l-13 46h-4q-13 -17 -37 -33.5q-24 -16.5 -67 -16.5q-52 0 -83 27.5q-31 27.5 -31 71.5q0 33 17.5 55q17.5 22 47 35q29.5 13 69 17.5q39.5 4.5 83.5 2.5q2 26 -7 37.5q-9 11.5 -44 11.5q-40 0 -72.5 -8q-32.5 -8 -52.5 -16zM194 454q32 0 45 11.5q13 11.5 20 23.5l0 35q-43 5 -72.5 -2q-29.5 -7 -29.5 -34q0 -16 10.5 -25t26.5 -9z" />
<glyph unicode="&#171;" horiz-adv-x="488" d="M223 261l154 216l71 -56l-81 -122l-46 -39l46 -35l87 -121l-71 -56zM29 259l160 230l79 -62l-87 -126l-48 -41l48 -36l93 -124l-79 -62z" />
<glyph unicode="&#172;" horiz-adv-x="527" d="M45 412h442v-226h-120v114l-322 0z" />
<glyph unicode="&#173;" horiz-adv-x="360" d="M54 345h251v-115l-251 0z" />
<glyph unicode="&#174;" horiz-adv-x="690" d="M62 451q0 67 22.5 119.5q22.5 52.5 61.5 88.5q39 36 90.5 55q51.5 19 108.5 19q59 0 110.5 -19q51.5 -19 89.5 -55q38 -36 60 -88.5q22 -52.5 22 -119.5q0 -68 -22.5 -120.5q-22.5 -52.5 -61 -88.5q-38.5 -36 -90 -54.5q-51.5 -18.5 -108.5 -18.5q-59 0 -110.5 18.5q-51.5 18.5 -90 54.5q-38.5 36 -60.5 88.5q-22 52.5 -22 120.5zt0 0zM156 451q0 -48 15.5 -84.5q15.5 -36.5 41.5 -60.5q26 -24 60 -36q34 -12 72 -12q40 0 74.5 11.5q34.5 11.5 59.5 35.5q25 24 39.5 60.5q14.5 36.5 14.5 85.5q0 48 -15 84q-15 36 -40.5 60q-25.5 24 -60 36q-34.5 12 -72.5 12q-42 0 -77 -13q-35 -13 -60 -38q-25 -25 -38.5 -60.5q-13.5 -35.5 -13.5 -80.5zt0 0zM242 581q16 5 45 7.5q29 2.5 55 2.5q42 0 72 -17.5q30 -17.5 30 -60.5q0 -32 -20.5 -49q-20.5 -17 -50.5 -19l28 -14l65 -109h-61l-63 104l-48 15v-119h-52zM331 546q-11 0 -21 -0.5q-10 -0.5 -16 -3.5l0 -71h34q29 0 45 9q16 9 16 31q0 35 -58 35z" />
<glyph unicode="&#175;" horiz-adv-x="443" d="M60 658h323v-92l-323 0z" />
<glyph unicode="&#176;" horiz-adv-x="437" d="M60 548q0 37 13 67.5q13 30.5 35.5 52.5q22.5 22 52 34q29.5 12 63.5 12q34 0 64.5 -11q30.5 -11 53.5 -32.5q23 -21.5 36 -52.5q13 -31 13 -70q0 -39 -13 -69.5q-13 -30.5 -36 -51.5q-23 -21 -53.5 -32q-30.5 -11 -64.5 -11q-34 0 -63.5 11q-29.5 11 -52 32q-22.5 21 -35.5 51.5q-13 30.5 -13 69.5zt0 0zM160 548q0 -32 19 -50.5q19 -18.5 46 -18.5q27 0 47 18.5q20 18.5 20 50.5q0 32 -20 51.5q-20 19.5 -47 19.5q-27 0 -46 -19.5t-19 -51.5z" />
<glyph unicode="&#177;" horiz-adv-x="527" d="M43 518h162v164h117v-164h163v-112h-163v-107h-117v107h-162zM43 253h442v-112l-442 0z" />
<glyph unicode="&#178;" horiz-adv-x="412" d="M348 680q0 -59 -30 -101q-30 -42 -72 -80l-47 -25v-4l59 11h106v-101h-313v71q26 18 58 42q32 24 59.5 51.5q27.5 27.5 46 56.5q18.5 29 18.5 55q0 49 -56 49q-27 0 -51 -8.5q-24 -8.5 -42 -19.5l-34 90q35 21 74.5 30.5q39.5 9.5 75.5 9.5q71 0 109.5 -32.5t38.5 -94.5z" />
<glyph unicode="&#179;" horiz-adv-x="412" d="M169 468q44 0 62.5 14q18.5 14 19.5 37q-1 23 -20 36q-19 13 -70 13h-42v38l73 80l43 25l-58 -6h-115v95h283v-62l-87 -92l-34 -18v-5l30 3q52 -2 81.5 -31.5q29.5 -29.5 30.5 -83.5q-1 -36 -15.5 -62q-14.5 -26 -39 -43q-24.5 -17 -57.5 -25q-33 -8 -68 -8q-39 0 -72.5 6.5q-33.5 6.5 -57.5 17.5l23 90q41 -19 90 -19z" />
<glyph unicode="&#180;" horiz-adv-x="305" d="M113 720h132v-30l-111 -124l-74 0z" />
<glyph unicode="&#181;" horiz-adv-x="569" d="M182 500v-273q0 -64 20.5 -96.5q20.5 -32.5 71.5 -32.5q46 0 74 23q28 23 40 64l0 315h130v-337q0 -41 2.5 -82.5q2.5 -41.5 12.5 -80.5l-96 0l-32 74h-4q-17 -35 -50 -60.5q-33 -25.5 -86 -25.5q-39 0 -60 14q-21 14 -39 36l-5 0l21 -105v-133h-130l0 700z" />
<glyph unicode="&#182;" horiz-adv-x="529" d="M362 700h107v-830h-107zM178 294q-33 0 -61 16.5q-28 16.5 -48.5 45q-20.5 28.5 -31.5 65q-11 36.5 -11 77.5q0 40 13 76.5q13 36.5 37 64.5q24 28 58 44.5q34 16.5 76 16.5h74v-830l-106 0z" />
<glyph unicode="&#183;" horiz-adv-x="253" d="M45 316q0 35 22 55.5q22 20.5 58 20.5q38 0 60 -20.5q22 -20.5 22 -55.5q0 -35 -22 -56q-22 -21 -60 -21q-36 0 -58 21t-22 56z" />
<glyph unicode="&#184;" horiz-adv-x="332" d="M208 0l-24 -43q41 -4 64.5 -21.5q23.5 -17.5 23.5 -53.5q0 -23 -11.5 -40q-11.5 -17 -31.5 -28.5q-20 -11.5 -47 -17.5q-27 -6 -58 -6q-31 0 -64 6l9 48q7 -1 13 -1q6 0 11 0q38 0 49 9q11 9 11 21q0 28 -86 32l57 95z" />
<glyph unicode="&#185;" horiz-adv-x="412" d="M72 480h97v164l10 46l-30 -32l-59 -39l-49 77l158 111h85v-327h88v-100l-300 0z" />
<glyph unicode="&#186;" horiz-adv-x="419" d="M34 542q0 45 13 77q13 32 36 53q23 21 55.5 30.5q32.5 9.5 70.5 9.5q38 0 70 -9q32 -9 55.5 -29q23.5 -20 36.5 -52.5q13 -32.5 14 -79.5q-1 -47 -14 -79.5q-13 -32.5 -36.5 -52.5q-23.5 -20 -55.5 -29q-32 -9 -70 -9q-38 0 -70.5 9q-32.5 9 -55.5 29q-23 20 -36 52.5q-13 32.5 -13 79.5zt0 0zM150 542q0 -86 59 -86q31 0 44.5 18.5q13.5 18.5 14.5 67.5q-1 48 -14.5 67q-13.5 19 -44.5 19q-31 0 -45 -19t-14 -67z" />
<glyph unicode="&#187;" horiz-adv-x="488" d="M264 266l-153 -216l-72 56l82 122l45 39l-45 35l-87 121l70 56zM459 268l-160 -230l-79 62l87 126l48 41l-48 36l-93 124l79 62z" />
<glyph unicode="&#188;" horiz-adv-x="880" d="M609 715l85 -50l-430 -679l-86 53zM833 78h-76v-78h-101v78h-207v67l218 283h90v-261h76zM656 253l6 53h-5l-22 -49l-48 -66l-36 -32l52 8h53zM164 544l11 46l-31 -32l-59 -39l-49 77l158 111h85v-427l-115 0z" />
<glyph unicode="&#189;" horiz-adv-x="903" d="M609 715l85 -50l-430 -679l-86 53zM841 300q0 -59 -30 -101q-30 -42 -72 -80l-47 -25v-4l59 11h106v-101h-313v71q26 18 58 42q32 24 59.5 51.5q27.5 27.5 46 56.5q18.5 29 18.5 55q0 49 -56 49q-27 0 -51 -8.5q-24 -8.5 -42 -19.5l-34 90q35 21 74.5 30.5q39.5 9.5 75.5 9.5q71 0 109.5 -32.5q38.5 -32.5 38.5 -94.5zt0 0zM164 544l11 46l-31 -32l-59 -39l-49 77l158 111h85v-427l-115 0z" />
<glyph unicode="&#190;" horiz-adv-x="905" d="M634 715l85 -50l-430 -679l-86 53zM858 78h-76v-78h-101v78h-207v67l218 283h90v-261h76zM681 253l6 53h-5l-22 -49l-48 -66l-36 -32l52 8h53zM160 368q44 0 62.5 14q18.5 14 19.5 37q-1 23 -20 36q-19 13 -70 13h-42v38l73 80l43 25l-58 -6h-115v95h283v-62l-87 -92l-34 -18v-5l30 3q52 -2 81.5 -31.5q29.5 -29.5 30.5 -83.5q-1 -36 -15.5 -62q-14.5 -26 -39 -43q-24.5 -17 -57.5 -25q-33 -8 -68 -8q-39 0 -72.5 6.5q-33.5 6.5 -57.5 17.5l23 90q41 -19 90 -19z" />
<glyph unicode="&#191;" horiz-adv-x="454" d="M317 293q5 -52 -4.5 -88.5q-9.5 -36.5 -27.5 -63q-18 -26.5 -40 -45.5q-22 -19 -41.5 -37q-19.5 -18 -33 -37.5q-13.5 -19.5 -13.5 -46.5q0 -35 20 -56.5q20 -21.5 70 -21.5q16 0 34 3.5q18 3.5 36 10q18 6.5 34.5 15q16.5 8.5 29.5 18.5l49 -96q-38 -26 -87 -43q-49 -17 -119 -17q-94 0 -147.5 45q-53.5 45 -53.5 123q0 51 13.5 84q13.5 33 34 56.5q20.5 23.5 44 41.5q23.5 18 44 38.5q20.5 20.5 34 47.5q13.5 27 13.5 69zM178 435q0 35 22 55.5q22 20.5 58 20.5q38 0 60 -20.5q22 -20.5 22 -55.5q0 -35 -22 -56q-22 -21 -60 -21q-36 0 -58 21t-22 56z" />
<glyph unicode="&#192;" horiz-adv-x="605" d="M405 155h-215l-53 -155h-137l252 705h101l252 -705h-144zM225 265h150l-52 156l-21 110h-5l-21 -111zM399 752h-105l-158 88v30l159 0z" />
<glyph unicode="&#193;" horiz-adv-x="605" d="M405 155h-215l-53 -155h-137l252 705h101l252 -705h-144zM225 265h150l-52 156l-21 110h-5l-21 -111zM309 870h159v-30l-160 -88l-103 0z" />
<glyph unicode="&#194;" horiz-adv-x="605" d="M405 155h-215l-53 -155h-137l252 705h101l252 -705h-144zM225 265h150l-52 156l-21 110h-5l-21 -111zM257 870h96l127 -93v-39h-99l-57 41l-20 34l-21 -33l-62 -42h-97l0 40z" />
<glyph unicode="&#195;" horiz-adv-x="605" d="M405 155h-215l-53 -155h-137l252 705h101l252 -705h-144zM225 265h150l-52 156l-21 110h-5l-21 -111zM113 800q32 35 61.5 48q29.5 13 58.5 13q22 0 44 -5.5q22 -5.5 42.5 -12q20.5 -6.5 40.5 -12q20 -5.5 38 -5.5q16 0 31 5q15 5 29 19l25 -67q-28 -26 -54.5 -36.5q-26.5 -10.5 -51.5 -10.5q-23 0 -44 5.5q-21 5.5 -41.5 12.5q-20.5 7 -40.5 12.5q-20 5.5 -39 5.5q-19 0 -37.5 -7.5q-18.5 -7.5 -37.5 -27.5z" />
<glyph unicode="&#196;" horiz-adv-x="605" d="M405 155h-215l-53 -155h-137l252 705h101l252 -705h-144zM225 265h150l-52 156l-21 110h-5l-21 -111zM124 798q0 26 18 42q18 16 58 16q39 0 57 -16q18 -16 18 -42q0 -26 -18 -41.5q-18 -15.5 -57 -15.5q-40 0 -58 15.5q-18 15.5 -18 41.5zt0 0zM338 798q0 26 18 42q18 16 57 16q40 0 58 -16q18 -16 18 -42q0 -26 -18 -41.5q-18 -15.5 -58 -15.5q-39 0 -57 15.5t-18 41.5z" />
<glyph unicode="&#197;" horiz-adv-x="605" d="M175 771q0 18 6 34.5q6 16.5 20.5 29q14.5 12.5 39 19.5q24.5 7 62.5 7q70 0 99 -24q29 -24 29 -66q0 -29 -16 -50.5q-16 -21.5 -57 -31.5l247 -689h-144l-56 155h-215l-53 -155h-137l246 689q-39 9 -55 31q-16 22 -16 51zt0 0zM225 265h150l-52 156l-21 110h-5l-21 -111zM259 771q0 -31 44 -31q25 0 35 8q10 8 10 23q0 17 -10.5 25q-10.5 8 -34.5 8q-44 0 -44 -33z" />
<glyph unicode="&#198;" horiz-adv-x="862" d="M394 532l-36 -103l-84 -148h126v251zM400 170h-186l-99 -170h-144l424 700h419v-122h-277v-163h252v-122h-252v-171h282v-122l-419 0z" />
<glyph unicode="&#199;" horiz-adv-x="559" d="M534 29q-26 -19 -65.5 -29q-39.5 -10 -83.5 -13l-16 -30q41 -4 64.5 -21.5q23.5 -17.5 23.5 -53.5q0 -23 -11.5 -40q-11.5 -17 -31.5 -28.5q-20 -11.5 -47 -17.5q-27 -6 -58 -6q-31 0 -64 6l9 48q7 -1 13 -1q6 0 11 0q38 0 49 9q11 9 11 21q0 28 -86 32l50 84q-55 7 -103 30.5q-48 23.5 -84 67.5q-36 44 -56.5 109q-20.5 65 -20.5 154q0 103 28.5 172.5q28.5 69.5 74 112q45.5 42.5 101.5 61q56 18.5 112 18.5q60 0 101.5 -8q41.5 -8 68.5 -19v-116q-50 11 -81.5 16q-31.5 5 -76.5 5q-83 0 -133.5 -59q-50.5 -59 -50.5 -183q0 -54 12 -98.5q12 -44.5 36.5 -76q24.5 -31.5 61 -49q36.5 -17.5 84.5 -17.5q45 0 76 9q31 9 54 23z" />
<glyph unicode="&#200;" horiz-adv-x="522" d="M60 700h415v-122h-278v-163h253v-122h-253v-171h283v-122h-420zM352 752h-105l-158 88v30l159 0z" />
<glyph unicode="&#201;" horiz-adv-x="522" d="M60 700h415v-122h-278v-163h253v-122h-253v-171h283v-122h-420zM293 870h159v-30l-160 -88l-103 0z" />
<glyph unicode="&#202;" horiz-adv-x="522" d="M60 700h415v-122h-278v-163h253v-122h-253v-171h283v-122h-420zM219 870h96l127 -93v-39h-99l-57 41l-20 34l-21 -33l-62 -42h-97l0 40z" />
<glyph unicode="&#203;" horiz-adv-x="522" d="M60 700h415v-122h-278v-163h253v-122h-253v-171h283v-122h-420zM84 798q0 26 18 42q18 16 58 16q39 0 57 -16q18 -16 18 -42q0 -26 -18 -41.5q-18 -15.5 -57 -15.5q-40 0 -58 15.5q-18 15.5 -18 41.5zt0 0zM298 798q0 26 18 42q18 16 57 16q40 0 58 -16q18 -16 18 -42q0 -26 -18 -41.5q-18 -15.5 -58 -15.5q-39 0 -57 15.5t-18 41.5z" />
<glyph unicode="&#204;" horiz-adv-x="285" d="M74 700h137v-700h-137zM240 752h-105l-158 88v30l159 0z" />
<glyph unicode="&#205;" horiz-adv-x="285" d="M74 700h137v-700h-137zM152 870h159v-30l-160 -88l-103 0z" />
<glyph unicode="&#206;" horiz-adv-x="285" d="M74 700h137v-700h-137zM96 870h96l127 -93v-39h-99l-57 41l-20 34l-21 -33l-62 -42h-97l0 40z" />
<glyph unicode="&#207;" horiz-adv-x="285" d="M74 700h137v-700h-137zM-39 798q0 26 18 42q18 16 58 16q39 0 57 -16q18 -16 18 -42q0 -26 -18 -41.5q-18 -15.5 -57 -15.5q-40 0 -58 15.5q-18 15.5 -18 41.5zt0 0zM175 798q0 26 18 42q18 16 57 16q40 0 58 -16q18 -16 18 -42q0 -26 -18 -41.5q-18 -15.5 -58 -15.5q-39 0 -57 15.5t-18 41.5z" />
<glyph unicode="&#208;" horiz-adv-x="669" d="M-6 401h88v299q21 3 47.5 5q26.5 2 54.5 3q28 1 54.5 1.5q26.5 0.5 47.5 0.5q93 0 159 -26q66 -26 107 -73q41 -47 60 -112q19 -65 19 -143q0 -71 -18 -137q-18 -66 -60 -117q-42 -51 -110.5 -82q-68.5 -31 -169.5 -31q-16 0 -42.5 1q-26.5 1 -55 2.5q-28.5 1.5 -54.5 3q-26 1.5 -39 3.5l0 322h-88zM297 588q-22 0 -44.5 -1q-22.5 -1 -33.5 -3l0 -183h140v-80h-140v-207q4 -1 13.5 -1.5q9.5 -0.5 20.5 -1q11 -0.5 21 -0.5q10 0 15 0q58 0 96.5 20.5q38.5 20.5 61 54.5q22.5 34 31.5 78.5q9 44.5 9 91.5q0 41 -8 82.5q-8 41.5 -29.5 74.5q-21.5 33 -58.5 54t-94 21z" />
<glyph unicode="&#209;" horiz-adv-x="657" d="M234 365l-55 110h-5l16 -110v-365h-130v705h100l265 -373l53 -107h5l-16 107v368h130v-705h-100zM138 800q32 35 61.5 48q29.5 13 58.5 13q22 0 44 -5.5q22 -5.5 42.5 -12q20.5 -6.5 40.5 -12q20 -5.5 38 -5.5q16 0 31 5q15 5 29 19l25 -67q-28 -26 -54.5 -36.5q-26.5 -10.5 -51.5 -10.5q-23 0 -44 5.5q-21 5.5 -41.5 12.5q-20.5 7 -40.5 12.5q-20 5.5 -39 5.5q-19 0 -37.5 -7.5q-18.5 -7.5 -37.5 -27.5z" />
<glyph unicode="&#210;" horiz-adv-x="670" d="M38 350q0 175 77 269.5q77 94.5 220 94.5q75 0 131 -26q56 -26 93 -74q37 -48 55 -115q18 -67 18 -149q0 -175 -77.5 -269.5q-77.5 -94.5 -219.5 -94.5q-76 0 -132 26q-56 26 -92.5 74q-36.5 48 -54.5 115q-18 67 -18 149zt0 0zM182 350q0 -53 9 -97.5q9 -44.5 27.5 -76.5q18.5 -32 47.5 -50q29 -18 69 -18q73 0 113 57q40 57 40 185q0 51 -8.5 95q-8.5 44 -26.5 77q-18 33 -47 51.5q-29 18.5 -71 18.5q-73 0 -113 -58.5q-40 -58.5 -40 -183.5zt0 0zM412 752h-105l-158 88v30l159 0z" />
<glyph unicode="&#211;" horiz-adv-x="670" d="M38 350q0 175 77 269.5q77 94.5 220 94.5q75 0 131 -26q56 -26 93 -74q37 -48 55 -115q18 -67 18 -149q0 -175 -77.5 -269.5q-77.5 -94.5 -219.5 -94.5q-76 0 -132 26q-56 26 -92.5 74q-36.5 48 -54.5 115q-18 67 -18 149zt0 0zM182 350q0 -53 9 -97.5q9 -44.5 27.5 -76.5q18.5 -32 47.5 -50q29 -18 69 -18q73 0 113 57q40 57 40 185q0 51 -8.5 95q-8.5 44 -26.5 77q-18 33 -47 51.5q-29 18.5 -71 18.5q-73 0 -113 -58.5q-40 -58.5 -40 -183.5zt0 0zM368 870h159v-30l-160 -88l-103 0z" />
<glyph unicode="&#212;" horiz-adv-x="670" d="M38 350q0 175 77 269.5q77 94.5 220 94.5q75 0 131 -26q56 -26 93 -74q37 -48 55 -115q18 -67 18 -149q0 -175 -77.5 -269.5q-77.5 -94.5 -219.5 -94.5q-76 0 -132 26q-56 26 -92.5 74q-36.5 48 -54.5 115q-18 67 -18 149zt0 0zM182 350q0 -53 9 -97.5q9 -44.5 27.5 -76.5q18.5 -32 47.5 -50q29 -18 69 -18q73 0 113 57q40 57 40 185q0 51 -8.5 95q-8.5 44 -26.5 77q-18 33 -47 51.5q-29 18.5 -71 18.5q-73 0 -113 -58.5q-40 -58.5 -40 -183.5zt0 0zM287 870h96l127 -93v-39h-99l-57 41l-20 34l-21 -33l-62 -42h-97l0 40z" />
<glyph unicode="&#213;" horiz-adv-x="670" d="M38 350q0 175 77 269.5q77 94.5 220 94.5q75 0 131 -26q56 -26 93 -74q37 -48 55 -115q18 -67 18 -149q0 -175 -77.5 -269.5q-77.5 -94.5 -219.5 -94.5q-76 0 -132 26q-56 26 -92.5 74q-36.5 48 -54.5 115q-18 67 -18 149zt0 0zM182 350q0 -53 9 -97.5q9 -44.5 27.5 -76.5q18.5 -32 47.5 -50q29 -18 69 -18q73 0 113 57q40 57 40 185q0 51 -8.5 95q-8.5 44 -26.5 77q-18 33 -47 51.5q-29 18.5 -71 18.5q-73 0 -113 -58.5q-40 -58.5 -40 -183.5zt0 0zM144 800q32 35 61.5 48q29.5 13 58.5 13q22 0 44 -5.5q22 -5.5 42.5 -12q20.5 -6.5 40.5 -12q20 -5.5 38 -5.5q16 0 31 5q15 5 29 19l25 -67q-28 -26 -54.5 -36.5q-26.5 -10.5 -51.5 -10.5q-23 0 -44 5.5q-21 5.5 -41.5 12.5q-20.5 7 -40.5 12.5q-20 5.5 -39 5.5q-19 0 -37.5 -7.5q-18.5 -7.5 -37.5 -27.5z" />
<glyph unicode="&#214;" horiz-adv-x="670" d="M38 350q0 175 77 269.5q77 94.5 220 94.5q75 0 131 -26q56 -26 93 -74q37 -48 55 -115q18 -67 18 -149q0 -175 -77.5 -269.5q-77.5 -94.5 -219.5 -94.5q-76 0 -132 26q-56 26 -92.5 74q-36.5 48 -54.5 115q-18 67 -18 149zt0 0zM182 350q0 -53 9 -97.5q9 -44.5 27.5 -76.5q18.5 -32 47.5 -50q29 -18 69 -18q73 0 113 57q40 57 40 185q0 51 -8.5 95q-8.5 44 -26.5 77q-18 33 -47 51.5q-29 18.5 -71 18.5q-73 0 -113 -58.5q-40 -58.5 -40 -183.5zt0 0zM150 798q0 26 18 42q18 16 58 16q39 0 57 -16q18 -16 18 -42q0 -26 -18 -41.5q-18 -15.5 -57 -15.5q-40 0 -58 15.5q-18 15.5 -18 41.5zt0 0zM364 798q0 26 18 42q18 16 57 16q40 0 58 -16q18 -16 18 -42q0 -26 -18 -41.5q-18 -15.5 -58 -15.5q-39 0 -57 15.5t-18 41.5z" />
<glyph unicode="&#215;" horiz-adv-x="527" d="M134 547l131 -130l130 130l79 -81l-130 -127l130 -129l-79 -82l-130 131l-132 -132l-79 81l131 131l-129 127z" />
<glyph unicode="&#216;" horiz-adv-x="670" d="M111 86q-37 48 -55 114.5q-18 66.5 -18 149.5q0 175 77 269.5q77 94.5 220 94.5q45 0 83 -10q38 -10 69 -28l25 39l85 -50l-35 -56q35 -48 52.5 -113.5q17.5 -65.5 17.5 -145.5q0 -175 -77.5 -269.5q-77.5 -94.5 -219.5 -94.5q-44 0 -80 8.5q-36 8.5 -67 24.5l-21 -33l-86 53zM182 350q0 -36 4 -68q4 -32 12 -59l219 342q-35 27 -82 27q-73 0 -113 -58.5q-40 -58.5 -40 -183.5zt0 0zM488 350q0 33 -3 63.5q-3 30.5 -11 56.5l-215 -340q33 -22 76 -22q73 0 113 57t40 185z" />
<glyph unicode="&#217;" horiz-adv-x="627" d="M440 700h130v-452q0 -68 -18 -117q-18 -49 -50 -81q-32 -32 -78 -47q-46 -15 -101 -15q-266 0 -266 243v469h137v-442q0 -41 7.5 -69.5q7.5 -28.5 23.5 -46q16 -17.5 40 -25q24 -7.5 56 -7.5q63 0 91 35q28 35 28 113zM395 752h-105l-158 88v30l159 0z" />
<glyph unicode="&#218;" horiz-adv-x="627" d="M440 700h130v-452q0 -68 -18 -117q-18 -49 -50 -81q-32 -32 -78 -47q-46 -15 -101 -15q-266 0 -266 243v469h137v-442q0 -41 7.5 -69.5q7.5 -28.5 23.5 -46q16 -17.5 40 -25q24 -7.5 56 -7.5q63 0 91 35q28 35 28 113zM365 870h159v-30l-160 -88l-103 0z" />
<glyph unicode="&#219;" horiz-adv-x="627" d="M440 700h130v-452q0 -68 -18 -117q-18 -49 -50 -81q-32 -32 -78 -47q-46 -15 -101 -15q-266 0 -266 243v469h137v-442q0 -41 7.5 -69.5q7.5 -28.5 23.5 -46q16 -17.5 40 -25q24 -7.5 56 -7.5q63 0 91 35q28 35 28 113zM273 870h96l127 -93v-39h-99l-57 41l-20 34l-21 -33l-62 -42h-97l0 40z" />
<glyph unicode="&#220;" horiz-adv-x="627" d="M440 700h130v-452q0 -68 -18 -117q-18 -49 -50 -81q-32 -32 -78 -47q-46 -15 -101 -15q-266 0 -266 243v469h137v-442q0 -41 7.5 -69.5q7.5 -28.5 23.5 -46q16 -17.5 40 -25q24 -7.5 56 -7.5q63 0 91 35q28 35 28 113zM133 798q0 26 18 42q18 16 58 16q39 0 57 -16q18 -16 18 -42q0 -26 -18 -41.5q-18 -15.5 -57 -15.5q-40 0 -58 15.5q-18 15.5 -18 41.5zt0 0zM347 798q0 26 18 42q18 16 57 16q40 0 58 -16q18 -16 18 -42q0 -26 -18 -41.5q-18 -15.5 -58 -15.5q-39 0 -57 15.5t-18 41.5z" />
<glyph unicode="&#221;" horiz-adv-x="592" d="M228 260l-230 440h163l128 -263l14 -74h5l15 76l124 261h147l-229 -439v-261h-137zM326 870h159v-30l-160 -88l-103 0z" />
<glyph unicode="&#222;" horiz-adv-x="572" d="M60 700h137v-72q14 1 28 1.5q14 0.5 28 0.5q52 0 104.5 -8.5q52.5 -8.5 94.5 -34q42 -25.5 68.5 -71q26.5 -45.5 26.5 -118.5q0 -66 -23 -111.5q-23 -45.5 -61 -74.5q-38 -29 -86.5 -42q-48.5 -13 -100.5 -13q-5 0 -16 0q-11 0 -23 0.5q-12 0.5 -23.5 1.5q-11.5 1 -16.5 2l0 -161h-137zM264 512q-20 0 -38 -1.5q-18 -1.5 -29 -3.5l0 -227q4 -1 12 -2q8 -1 17 -1.5q9 -0.5 17.5 -0.5q8.5 0 12.5 0q27 0 53.5 5q26.5 5 47.5 18.5q21 13.5 33.5 37.5q12.5 24 12.5 63q0 33 -12 54.5q-12 21.5 -31.5 34.5q-19.5 13 -44.5 18t-51 5z" />
<glyph unicode="&#223;" horiz-adv-x="630" d="M81 390h-69v110h69q0 58 16 97.5q16 39.5 44.5 64q28.5 24.5 68 35.5q39.5 11 86.5 11q51 0 91.5 -11.5q40.5 -11.5 69 -32.5q28.5 -21 44 -50.5q15.5 -29.5 15.5 -65.5q0 -39 -17.5 -63q-17.5 -24 -39 -41q-21.5 -17 -39 -32q-17.5 -15 -17.5 -37q0 -18 14.5 -29q14.5 -11 37 -20.5q22.5 -9.5 48 -20q25.5 -10.5 48 -27.5q22.5 -17 37 -43.5q14.5 -26.5 14.5 -67.5q0 -35 -11 -67.5q-11 -32.5 -34.5 -58q-23.5 -25.5 -59 -40.5q-35.5 -15 -83.5 -15q-47 0 -86.5 11.5q-39.5 11.5 -67.5 28.5l35 97q23 -13 46 -23q23 -10 62 -10q30 0 49.5 20.5q19.5 20.5 19.5 49.5q0 21 -14.5 34q-14.5 13 -37 23.5q-22.5 10.5 -48 20.5q-25.5 10 -48 25.5q-22.5 15.5 -37 38.5q-14.5 23 -14.5 59q0 43 17.5 67q17.5 24 39 40.5q21.5 16.5 39 30.5q17.5 14 17.5 38q0 13 -7 24.5q-7 11.5 -19 19.5q-12 8 -27 13q-15 5 -30 5q-48 0 -70.5 -23.5q-22.5 -23.5 -22.5 -87.5v-488l-129 0z" />
<glyph unicode="&#224;" horiz-adv-x="496" d="M54 471q40 18 95 28.5q55 10.5 115 10.5q52 0 87 -12.5q35 -12.5 55.5 -35.5q20.5 -23 29 -55q8.5 -32 8.5 -72q0 -44 -3 -88.5q-3 -44.5 -3.5 -87.5q-0.5 -43 2.5 -83.5q3 -40.5 15 -76.5l-106 0l-21 69h-5q-20 -31 -55.5 -53.5q-35.5 -22.5 -91.5 -22.5q-35 0 -63 10.5q-28 10.5 -48 30q-20 19.5 -31 46q-11 26.5 -11 59.5q0 46 20.5 77.5q20.5 31.5 59 51q38.5 19.5 92 27q53.5 7.5 119.5 4.5q7 56 -8 80.5q-15 24.5 -67 24.5q-39 0 -82.5 -8q-43.5 -8 -71.5 -21zM219 99q39 0 62 17.5q23 17.5 34 37.5l0 65q-31 3 -59.5 1q-28.5 -2 -50.5 -9q-22 -7 -35 -20q-13 -13 -13 -33q0 -28 16.5 -43.5q16.5 -15.5 45.5 -15.5zt0 0zM311 566h-72l-124 124v30l136 0z" />
<glyph unicode="&#225;" horiz-adv-x="496" d="M54 471q40 18 95 28.5q55 10.5 115 10.5q52 0 87 -12.5q35 -12.5 55.5 -35.5q20.5 -23 29 -55q8.5 -32 8.5 -72q0 -44 -3 -88.5q-3 -44.5 -3.5 -87.5q-0.5 -43 2.5 -83.5q3 -40.5 15 -76.5l-106 0l-21 69h-5q-20 -31 -55.5 -53.5q-35.5 -22.5 -91.5 -22.5q-35 0 -63 10.5q-28 10.5 -48 30q-20 19.5 -31 46q-11 26.5 -11 59.5q0 46 20.5 77.5q20.5 31.5 59 51q38.5 19.5 92 27q53.5 7.5 119.5 4.5q7 56 -8 80.5q-15 24.5 -67 24.5q-39 0 -82.5 -8q-43.5 -8 -71.5 -21zM219 99q39 0 62 17.5q23 17.5 34 37.5l0 65q-31 3 -59.5 1q-28.5 -2 -50.5 -9q-22 -7 -35 -20q-13 -13 -13 -33q0 -28 16.5 -43.5q16.5 -15.5 45.5 -15.5zt0 0zM237 720h132v-30l-111 -124l-74 0z" />
<glyph unicode="&#226;" horiz-adv-x="496" d="M54 471q40 18 95 28.5q55 10.5 115 10.5q52 0 87 -12.5q35 -12.5 55.5 -35.5q20.5 -23 29 -55q8.5 -32 8.5 -72q0 -44 -3 -88.5q-3 -44.5 -3.5 -87.5q-0.5 -43 2.5 -83.5q3 -40.5 15 -76.5l-106 0l-21 69h-5q-20 -31 -55.5 -53.5q-35.5 -22.5 -91.5 -22.5q-35 0 -63 10.5q-28 10.5 -48 30q-20 19.5 -31 46q-11 26.5 -11 59.5q0 46 20.5 77.5q20.5 31.5 59 51q38.5 19.5 92 27q53.5 7.5 119.5 4.5q7 56 -8 80.5q-15 24.5 -67 24.5q-39 0 -82.5 -8q-43.5 -8 -71.5 -21zM219 99q39 0 62 17.5q23 17.5 34 37.5l0 65q-31 3 -59.5 1q-28.5 -2 -50.5 -9q-22 -7 -35 -20q-13 -13 -13 -33q0 -28 16.5 -43.5q16.5 -15.5 45.5 -15.5zt0 0zM216 732h86l111 -182h-103l-39 66l-17 49l-17 -49l-45 -66l-99 0z" />
<glyph unicode="&#227;" horiz-adv-x="496" d="M54 471q40 18 95 28.5q55 10.5 115 10.5q52 0 87 -12.5q35 -12.5 55.5 -35.5q20.5 -23 29 -55q8.5 -32 8.5 -72q0 -44 -3 -88.5q-3 -44.5 -3.5 -87.5q-0.5 -43 2.5 -83.5q3 -40.5 15 -76.5l-106 0l-21 69h-5q-20 -31 -55.5 -53.5q-35.5 -22.5 -91.5 -22.5q-35 0 -63 10.5q-28 10.5 -48 30q-20 19.5 -31 46q-11 26.5 -11 59.5q0 46 20.5 77.5q20.5 31.5 59 51q38.5 19.5 92 27q53.5 7.5 119.5 4.5q7 56 -8 80.5q-15 24.5 -67 24.5q-39 0 -82.5 -8q-43.5 -8 -71.5 -21zM219 99q39 0 62 17.5q23 17.5 34 37.5l0 65q-31 3 -59.5 1q-28.5 -2 -50.5 -9q-22 -7 -35 -20q-13 -13 -13 -33q0 -28 16.5 -43.5q16.5 -15.5 45.5 -15.5zt0 0zM86 658q31 37 57.5 51q26.5 14 50.5 14q20 0 38.5 -7q18.5 -7 36.5 -15q18 -8 35 -15q17 -7 35 -7q14 0 28.5 6q14.5 6 30.5 21l20 -70q-29 -32 -53.5 -44q-24.5 -12 -47.5 -12q-20 0 -39 6.5q-19 6.5 -37 14.5q-18 8 -36 14.5q-18 6.5 -36 6.5q-15 0 -31 -6.5q-16 -6.5 -33 -22.5z" />
<glyph unicode="&#228;" horiz-adv-x="496" d="M54 471q40 18 95 28.5q55 10.5 115 10.5q52 0 87 -12.5q35 -12.5 55.5 -35.5q20.5 -23 29 -55q8.5 -32 8.5 -72q0 -44 -3 -88.5q-3 -44.5 -3.5 -87.5q-0.5 -43 2.5 -83.5q3 -40.5 15 -76.5l-106 0l-21 69h-5q-20 -31 -55.5 -53.5q-35.5 -22.5 -91.5 -22.5q-35 0 -63 10.5q-28 10.5 -48 30q-20 19.5 -31 46q-11 26.5 -11 59.5q0 46 20.5 77.5q20.5 31.5 59 51q38.5 19.5 92 27q53.5 7.5 119.5 4.5q7 56 -8 80.5q-15 24.5 -67 24.5q-39 0 -82.5 -8q-43.5 -8 -71.5 -21zM219 99q39 0 62 17.5q23 17.5 34 37.5l0 65q-31 3 -59.5 1q-28.5 -2 -50.5 -9q-22 -7 -35 -20q-13 -13 -13 -33q0 -28 16.5 -43.5q16.5 -15.5 45.5 -15.5zt0 0zM75 651q0 32 19.5 51q19.5 19 51.5 19q32 0 50.5 -19q18.5 -19 18.5 -51q0 -30 -18.5 -49q-18.5 -19 -50.5 -19q-32 0 -51.5 19q-19.5 19 -19.5 49zt0 0zM294 651q0 32 18.5 51q18.5 19 50.5 19q32 0 51.5 -19q19.5 -19 19.5 -51q0 -30 -19.5 -49q-19.5 -19 -51.5 -19q-32 0 -50.5 19t-18.5 49z" />
<glyph unicode="&#229;" horiz-adv-x="496" d="M54 471q40 18 95 28.5q55 10.5 115 10.5q52 0 87 -12.5q35 -12.5 55.5 -35.5q20.5 -23 29 -55q8.5 -32 8.5 -72q0 -44 -3 -88.5q-3 -44.5 -3.5 -87.5q-0.5 -43 2.5 -83.5q3 -40.5 15 -76.5l-106 0l-21 69h-5q-20 -31 -55.5 -53.5q-35.5 -22.5 -91.5 -22.5q-35 0 -63 10.5q-28 10.5 -48 30q-20 19.5 -31 46q-11 26.5 -11 59.5q0 46 20.5 77.5q20.5 31.5 59 51q38.5 19.5 92 27q53.5 7.5 119.5 4.5q7 56 -8 80.5q-15 24.5 -67 24.5q-39 0 -82.5 -8q-43.5 -8 -71.5 -21zM219 99q39 0 62 17.5q23 17.5 34 37.5l0 65q-31 3 -59.5 1q-28.5 -2 -50.5 -9q-22 -7 -35 -20q-13 -13 -13 -33q0 -28 16.5 -43.5q16.5 -15.5 45.5 -15.5zt0 0zM144 647q0 42 28.5 69q28.5 27 82.5 27q51 0 81 -24.5q30 -24.5 30 -71.5q0 -39 -29.5 -66.5q-29.5 -27.5 -81.5 -27.5q-53 0 -82 25.5q-29 25.5 -29 68.5zt0 0zM216 647q0 -16 12 -24.5q12 -8.5 27 -8.5q17 0 28 8q11 8 11 25q0 17 -11.5 25.5q-11.5 8.5 -27.5 8.5q-15 0 -27 -8t-12 -26z" />
<glyph unicode="&#230;" horiz-adv-x="785" d="M219 99q39 0 62 17.5q23 17.5 34 37.5l0 65q-31 3 -59.5 1q-28.5 -2 -50.5 -9q-22 -7 -35 -20q-13 -13 -13 -33q0 -28 16.5 -43.5q16.5 -15.5 45.5 -15.5zt0 0zM350 76q-27 -34 -66.5 -59q-39.5 -25 -107.5 -25q-35 0 -63 10.5q-28 10.5 -48 30q-20 19.5 -31 46q-11 26.5 -11 59.5q0 46 20.5 77.5q20.5 31.5 58.5 51q38 19.5 91.5 27q53.5 7.5 119.5 4.5q7 56 -7.5 80.5q-14.5 24.5 -66.5 24.5q-39 0 -79.5 -10.5q-40.5 -10.5 -71.5 -25.5l-34 94q38 20 94 34.5q56 14.5 116 14.5q52 0 83 -13.5q31 -13.5 51 -40.5q25 28 65 43q40 15 87 15q38 0 74 -10q36 -10 64 -33q28 -23 45 -62q17 -39 17 -97q0 -21 -2.5 -44.5q-2.5 -23.5 -7.5 -50.5l-301 0q4 -63 33.5 -95q29.5 -32 95.5 -32q41 0 73.5 12.5q32.5 12.5 49.5 25.5l43 -85q-30 -24 -81.5 -40.5q-51.5 -16.5 -109.5 -16.5q-64 0 -112.5 23.5q-48.5 23.5 -75.5 66.5zM548 410q-51 0 -75.5 -30.5q-24.5 -30.5 -29.5 -81.5l187 0q3 54 -17 83t-65 29z" />
<glyph unicode="&#231;" horiz-adv-x="433" d="M411 31q-23 -17 -52.5 -27q-29.5 -10 -62.5 -15l-18 -32q41 -4 64.5 -21.5q23.5 -17.5 23.5 -53.5q0 -23 -11.5 -40q-11.5 -17 -31.5 -28.5q-20 -11.5 -47 -17.5q-27 -6 -58 -6q-31 0 -64 6l9 48q7 -1 13 -1q6 0 11 0q38 0 49 9q11 9 11 21q0 28 -86 32l50 84q-49 6 -83 27.5q-34 21.5 -55 55q-21 33.5 -30.5 79q-9.5 45.5 -9.5 99.5q0 127 57 195.5q57 68.5 166 68.5q55 0 88.5 -9q33.5 -9 60.5 -23l-31 -106q-23 11 -45.5 17q-22.5 6 -51.5 6q-54 0 -82 -35.5q-28 -35.5 -28 -113.5q0 -32 7 -59q7 -27 21 -47q14 -20 36.5 -31.5q22.5 -11.5 52.5 -11.5q33 0 56 8.5q23 8.5 41 20.5z" />
<glyph unicode="&#232;" horiz-adv-x="508" d="M457 43q-30 -24 -81.5 -40.5q-51.5 -16.5 -109.5 -16.5q-121 0 -177 70.5q-56 70.5 -56 193.5q0 132 63 198q63 66 177 66q38 0 74 -10q36 -10 64 -33q28 -23 45 -62q17 -39 17 -97q0 -21 -2.5 -45q-2.5 -24 -7.5 -50l-300 0q3 -63 32.5 -95q29.5 -32 95.5 -32q41 0 73.5 12.5q32.5 12.5 49.5 25.5zM271 410q-51 0 -75.5 -30.5q-24.5 -30.5 -29.5 -81.5l186 0q4 54 -16.5 83q-20.5 29 -64.5 29zt0 0zM329 566h-72l-124 124v30l136 0z" />
<glyph unicode="&#233;" horiz-adv-x="508" d="M457 43q-30 -24 -81.5 -40.5q-51.5 -16.5 -109.5 -16.5q-121 0 -177 70.5q-56 70.5 -56 193.5q0 132 63 198q63 66 177 66q38 0 74 -10q36 -10 64 -33q28 -23 45 -62q17 -39 17 -97q0 -21 -2.5 -45q-2.5 -24 -7.5 -50l-300 0q3 -63 32.5 -95q29.5 -32 95.5 -32q41 0 73.5 12.5q32.5 12.5 49.5 25.5zM271 410q-51 0 -75.5 -30.5q-24.5 -30.5 -29.5 -81.5l186 0q4 54 -16.5 83q-20.5 29 -64.5 29zt0 0zM274 720h132v-30l-111 -124l-74 0z" />
<glyph unicode="&#234;" horiz-adv-x="508" d="M457 43q-30 -24 -81.5 -40.5q-51.5 -16.5 -109.5 -16.5q-121 0 -177 70.5q-56 70.5 -56 193.5q0 132 63 198q63 66 177 66q38 0 74 -10q36 -10 64 -33q28 -23 45 -62q17 -39 17 -97q0 -21 -2.5 -45q-2.5 -24 -7.5 -50l-300 0q3 -63 32.5 -95q29.5 -32 95.5 -32q41 0 73.5 12.5q32.5 12.5 49.5 25.5zM271 410q-51 0 -75.5 -30.5q-24.5 -30.5 -29.5 -81.5l186 0q4 54 -16.5 83q-20.5 29 -64.5 29zt0 0zM221 732h86l111 -182h-103l-39 66l-17 49l-17 -49l-45 -66l-99 0z" />
<glyph unicode="&#235;" horiz-adv-x="508" d="M457 43q-30 -24 -81.5 -40.5q-51.5 -16.5 -109.5 -16.5q-121 0 -177 70.5q-56 70.5 -56 193.5q0 132 63 198q63 66 177 66q38 0 74 -10q36 -10 64 -33q28 -23 45 -62q17 -39 17 -97q0 -21 -2.5 -45q-2.5 -24 -7.5 -50l-300 0q3 -63 32.5 -95q29.5 -32 95.5 -32q41 0 73.5 12.5q32.5 12.5 49.5 25.5zM271 410q-51 0 -75.5 -30.5q-24.5 -30.5 -29.5 -81.5l186 0q4 54 -16.5 83q-20.5 29 -64.5 29zt0 0zM82 651q0 32 19.5 51q19.5 19 51.5 19q32 0 50.5 -19q18.5 -19 18.5 -51q0 -30 -18.5 -49q-18.5 -19 -50.5 -19q-32 0 -51.5 19q-19.5 19 -19.5 49zt0 0zM301 651q0 32 18.5 51q18.5 19 50.5 19q32 0 51.5 -19q19.5 -19 19.5 -51q0 -30 -19.5 -49q-19.5 -19 -51.5 -19q-32 0 -50.5 19t-18.5 49z" />
<glyph unicode="&#236;" horiz-adv-x="269" d="M70 500h130v-500h-130zM193 566h-72l-124 124v30l136 0z" />
<glyph unicode="&#237;" horiz-adv-x="269" d="M70 500h130v-500h-130zM124 720h132v-30l-111 -124l-74 0z" />
<glyph unicode="&#238;" horiz-adv-x="269" d="M70 500h130v-500h-130zM92 732h86l111 -182h-103l-39 66l-17 49l-17 -49l-45 -66l-99 0z" />
<glyph unicode="&#239;" horiz-adv-x="269" d="M70 500h130v-500h-130zM-46 651q0 32 19.5 51q19.5 19 51.5 19q32 0 50.5 -19q18.5 -19 18.5 -51q0 -30 -18.5 -49q-18.5 -19 -50.5 -19q-32 0 -51.5 19q-19.5 19 -19.5 49zt0 0zM173 651q0 32 18.5 51q18.5 19 50.5 19q32 0 51.5 -19q19.5 -19 19.5 -51q0 -30 -19.5 -49q-19.5 -19 -51.5 -19q-32 0 -50.5 19t-18.5 49z" />
<glyph unicode="&#240;" horiz-adv-x="563" d="M163 243q0 -72 33 -109q33 -37 88 -37q52 0 85 44.5q33 44.5 33 138.5q0 13 -1.5 34q-1.5 21 -5.5 33q-16 23 -48 32.5q-32 9.5 -62 9.5q-60 0 -91 -41.5q-31 -41.5 -31 -104.5zt0 0zM197 584l44 30q-34 15 -69 21l52 80q25 -7 57 -20q23 -9 47 -22l53 36l42 -55l-33 -23q12 -9 23 -20q32 -30 57 -73.5q25 -43.5 40.5 -101.5q15.5 -58 15.5 -134q0 -81 -18.5 -140.5q-18.5 -59.5 -51.5 -98.5q-33 -39 -79 -58q-46 -19 -101 -19q-59 0 -104 19q-45 19 -75 53.5q-30 34.5 -45 82q-15 47.5 -15 104.5q0 54 17 100q17 46 47.5 80.5q30.5 34.5 73.5 54q43 19.5 94 19.5q38 0 70.5 -10.5q32.5 -10.5 52.5 -30.5q-12 36 -34 66q-22 29 -50 51l-68 -46z" />
<glyph unicode="&#241;" horiz-adv-x="545" d="M363 0v284q0 61 -17.5 88q-17.5 27 -59.5 27q-37 0 -62.5 -21.5q-25.5 -21.5 -36.5 -53.5l0 -324h-130v500h103l15 -66h4q23 32 61 56q38 24 98 24q37 0 66 -10q29 -10 49 -33q20 -23 30 -62.5q10 -39.5 10 -97.5v-311zM107 658q31 37 57.5 51q26.5 14 50.5 14q20 0 38.5 -7q18.5 -7 36.5 -15q18 -8 35 -15q17 -7 35 -7q14 0 28.5 6q14.5 6 30.5 21l20 -70q-29 -32 -53.5 -44q-24.5 -12 -47.5 -12q-20 0 -39 6.5q-19 6.5 -37 14.5q-18 8 -36 14.5q-18 6.5 -36 6.5q-15 0 -31 -6.5q-16 -6.5 -33 -22.5z" />
<glyph unicode="&#242;" horiz-adv-x="537" d="M33 250q0 127 62 195.5q62 68.5 174 68.5q60 0 104 -19q44 -19 73 -53.5q29 -34.5 43.5 -83.5q14.5 -49 14.5 -108q0 -127 -61.5 -195.5q-61.5 -68.5 -173.5 -68.5q-60 0 -104 19q-44 19 -73.5 53.5q-29.5 34.5 -44 83.5q-14.5 49 -14.5 108zt0 0zM167 250q0 -33 6 -61q6 -28 18 -49q12 -21 31.5 -32.5q19.5 -11.5 46.5 -11.5q51 0 76 37q25 37 25 117q0 69 -23 111.5q-23 42.5 -78 42.5q-48 0 -75 -36q-27 -36 -27 -118zt0 0zM331 566h-72l-124 124v30l136 0z" />
<glyph unicode="&#243;" horiz-adv-x="537" d="M33 250q0 127 62 195.5q62 68.5 174 68.5q60 0 104 -19q44 -19 73 -53.5q29 -34.5 43.5 -83.5q14.5 -49 14.5 -108q0 -127 -61.5 -195.5q-61.5 -68.5 -173.5 -68.5q-60 0 -104 19q-44 19 -73.5 53.5q-29.5 34.5 -44 83.5q-14.5 49 -14.5 108zt0 0zM167 250q0 -33 6 -61q6 -28 18 -49q12 -21 31.5 -32.5q19.5 -11.5 46.5 -11.5q51 0 76 37q25 37 25 117q0 69 -23 111.5q-23 42.5 -78 42.5q-48 0 -75 -36q-27 -36 -27 -118zt0 0zM275 720h132v-30l-111 -124l-74 0z" />
<glyph unicode="&#244;" horiz-adv-x="537" d="M33 250q0 127 62 195.5q62 68.5 174 68.5q60 0 104 -19q44 -19 73 -53.5q29 -34.5 43.5 -83.5q14.5 -49 14.5 -108q0 -127 -61.5 -195.5q-61.5 -68.5 -173.5 -68.5q-60 0 -104 19q-44 19 -73.5 53.5q-29.5 34.5 -44 83.5q-14.5 49 -14.5 108zt0 0zM167 250q0 -33 6 -61q6 -28 18 -49q12 -21 31.5 -32.5q19.5 -11.5 46.5 -11.5q51 0 76 37q25 37 25 117q0 69 -23 111.5q-23 42.5 -78 42.5q-48 0 -75 -36q-27 -36 -27 -118zt0 0zM231 732h86l111 -182h-103l-39 66l-17 49l-17 -49l-45 -66l-99 0z" />
<glyph unicode="&#245;" horiz-adv-x="537" d="M33 250q0 127 62 195.5q62 68.5 174 68.5q60 0 104 -19q44 -19 73 -53.5q29 -34.5 43.5 -83.5q14.5 -49 14.5 -108q0 -127 -61.5 -195.5q-61.5 -68.5 -173.5 -68.5q-60 0 -104 19q-44 19 -73.5 53.5q-29.5 34.5 -44 83.5q-14.5 49 -14.5 108zt0 0zM167 250q0 -33 6 -61q6 -28 18 -49q12 -21 31.5 -32.5q19.5 -11.5 46.5 -11.5q51 0 76 37q25 37 25 117q0 69 -23 111.5q-23 42.5 -78 42.5q-48 0 -75 -36q-27 -36 -27 -118zt0 0zM104 658q31 37 57.5 51q26.5 14 50.5 14q20 0 38.5 -7q18.5 -7 36.5 -15q18 -8 35 -15q17 -7 35 -7q14 0 28.5 6q14.5 6 30.5 21l20 -70q-29 -32 -53.5 -44q-24.5 -12 -47.5 -12q-20 0 -39 6.5q-19 6.5 -37 14.5q-18 8 -36 14.5q-18 6.5 -36 6.5q-15 0 -31 -6.5q-16 -6.5 -33 -22.5z" />
<glyph unicode="&#246;" horiz-adv-x="537" d="M33 250q0 127 62 195.5q62 68.5 174 68.5q60 0 104 -19q44 -19 73 -53.5q29 -34.5 43.5 -83.5q14.5 -49 14.5 -108q0 -127 -61.5 -195.5q-61.5 -68.5 -173.5 -68.5q-60 0 -104 19q-44 19 -73.5 53.5q-29.5 34.5 -44 83.5q-14.5 49 -14.5 108zt0 0zM167 250q0 -33 6 -61q6 -28 18 -49q12 -21 31.5 -32.5q19.5 -11.5 46.5 -11.5q51 0 76 37q25 37 25 117q0 69 -23 111.5q-23 42.5 -78 42.5q-48 0 -75 -36q-27 -36 -27 -118zt0 0zM88 651q0 32 19.5 51q19.5 19 51.5 19q32 0 50.5 -19q18.5 -19 18.5 -51q0 -30 -18.5 -49q-18.5 -19 -50.5 -19q-32 0 -51.5 19q-19.5 19 -19.5 49zt0 0zM307 651q0 32 18.5 51q18.5 19 50.5 19q32 0 51.5 -19q19.5 -19 19.5 -51q0 -30 -19.5 -49q-19.5 -19 -51.5 -19q-32 0 -50.5 19t-18.5 49z" />
<glyph unicode="&#247;" horiz-adv-x="527" d="M43 394h442v-112h-442zM184 532q0 35 22 55.5q22 20.5 58 20.5q38 0 60 -20.5q22 -20.5 22 -55.5q0 -35 -22 -56q-22 -21 -60 -21q-36 0 -58 21q-22 21 -22 56zt0 0zM184 145q0 35 22 55.5q22 20.5 58 20.5q38 0 60 -20.5q22 -20.5 22 -55.5q0 -35 -22 -56q-22 -21 -60 -21q-36 0 -58 21t-22 56z" />
<glyph unicode="&#248;" horiz-adv-x="536" d="M33 250q0 127 61.5 195.5q61.5 68.5 173.5 68.5q32 0 59 -5.5q27 -5.5 50 -16.5l24 34l80 -59l-27 -38q25 -34 37 -79.5q12 -45.5 12 -99.5q0 -127 -61.5 -195.5q-61.5 -68.5 -173.5 -68.5q-34 0 -62.5 6.5q-28.5 6.5 -52.5 17.5l-25 -34l-83 60l31 43q-22 33 -32.5 76.5q-10.5 43.5 -10.5 94.5zt0 0zM369 250q0 37 -8 71l-149 -207q22 -18 56 -18q51 0 76 37q25 37 25 117zt0 0zM167 250q0 -35 6 -65l147 204q-21 15 -52 15q-48 0 -74.5 -36t-26.5 -118z" />
<glyph unicode="&#249;" horiz-adv-x="538" d="M182 500v-284q0 -61 14.5 -88q14.5 -27 56.5 -27q37 0 61.5 22q24.5 22 36.5 54l0 323h130v-348q0 -41 4 -80.5q4 -39.5 12 -71.5l-98 0l-23 74h-4q-23 -38 -64 -63q-41 -25 -97 -25q-38 0 -68 10q-30 10 -50 33q-20 23 -30.5 62q-10.5 39 -10.5 98v311zM318 566h-72l-124 124v30l136 0z" />
<glyph unicode="&#250;" horiz-adv-x="538" d="M182 500v-284q0 -61 14.5 -88q14.5 -27 56.5 -27q37 0 61.5 22q24.5 22 36.5 54l0 323h130v-348q0 -41 4 -80.5q4 -39.5 12 -71.5l-98 0l-23 74h-4q-23 -38 -64 -63q-41 -25 -97 -25q-38 0 -68 10q-30 10 -50 33q-20 23 -30.5 62q-10.5 39 -10.5 98v311zM261 720h132v-30l-111 -124l-74 0z" />
<glyph unicode="&#251;" horiz-adv-x="538" d="M182 500v-284q0 -61 14.5 -88q14.5 -27 56.5 -27q37 0 61.5 22q24.5 22 36.5 54l0 323h130v-348q0 -41 4 -80.5q4 -39.5 12 -71.5l-98 0l-23 74h-4q-23 -38 -64 -63q-41 -25 -97 -25q-38 0 -68 10q-30 10 -50 33q-20 23 -30.5 62q-10.5 39 -10.5 98v311zM232 732h86l111 -182h-103l-39 66l-17 49l-17 -49l-45 -66l-99 0z" />
<glyph unicode="&#252;" horiz-adv-x="538" d="M182 500v-284q0 -61 14.5 -88q14.5 -27 56.5 -27q37 0 61.5 22q24.5 22 36.5 54l0 323h130v-348q0 -41 4 -80.5q4 -39.5 12 -71.5l-98 0l-23 74h-4q-23 -38 -64 -63q-41 -25 -97 -25q-38 0 -68 10q-30 10 -50 33q-20 23 -30.5 62q-10.5 39 -10.5 98v311zM88 651q0 32 19.5 51q19.5 19 51.5 19q32 0 50.5 -19q18.5 -19 18.5 -51q0 -30 -18.5 -49q-18.5 -19 -50.5 -19q-32 0 -51.5 19q-19.5 19 -19.5 49zt0 0zM307 651q0 32 18.5 51q18.5 19 50.5 19q32 0 51.5 -19q19.5 -19 19.5 -51q0 -30 -19.5 -49q-19.5 -19 -51.5 -19q-32 0 -50.5 19t-18.5 49z" />
<glyph unicode="&#253;" horiz-adv-x="478" d="M239 219l18 -78h6l13 79l76 280h134l-152 -451q-19 -56 -36.5 -102.5q-17.5 -46.5 -38.5 -80.5q-21 -34 -46.5 -52.5q-25.5 -18.5 -60.5 -18.5q-52 0 -83 17l24 104q15 -6 30 -6q23 0 44.5 19.5q21.5 19.5 32.5 70.5l-209 500h156zM254 720h132v-30l-111 -124l-74 0z" />
<glyph unicode="&#254;" horiz-adv-x="540" d="M57 700h130v-243h4q21 26 50.5 41.5q29.5 15.5 77.5 15.5q94 0 141 -59.5q47 -59.5 47 -191.5q0 -64 -15 -115.5q-15 -51.5 -44.5 -87.5q-29.5 -36 -72 -55q-42.5 -19 -97.5 -19q-31 0 -51 4.5q-20 4.5 -40 14.5l0 -205h-130zM280 404q-36 0 -58.5 -19q-22.5 -19 -34.5 -57l0 -208q14 -11 30.5 -17.5q16.5 -6.5 43.5 -6.5q56 0 84 39.5q28 39.5 28 130.5q0 66 -22 102t-71 36z" />
<glyph unicode="&#255;" horiz-adv-x="478" d="M239 219l18 -78h6l13 79l76 280h134l-152 -451q-19 -56 -36.5 -102.5q-17.5 -46.5 -38.5 -80.5q-21 -34 -46.5 -52.5q-25.5 -18.5 -60.5 -18.5q-52 0 -83 17l24 104q15 -6 30 -6q23 0 44.5 19.5q21.5 19.5 32.5 70.5l-209 500h156zM66 651q0 32 19.5 51q19.5 19 51.5 19q32 0 50.5 -19q18.5 -19 18.5 -51q0 -30 -18.5 -49q-18.5 -19 -50.5 -19q-32 0 -51.5 19q-19.5 19 -19.5 49zt0 0zM285 651q0 32 18.5 51q18.5 19 50.5 19q32 0 51.5 -19q19.5 -19 19.5 -51q0 -30 -19.5 -49q-19.5 -19 -51.5 -19q-32 0 -50.5 19t-18.5 49z" />
<glyph unicode="&#256;" horiz-adv-x="605" d="M405 155h-215l-53 -155h-137l252 705h101l252 -705h-144zM225 265h150l-52 156l-21 110h-5l-21 -111zM129 856h343v-89l-343 0z" />
<glyph unicode="&#257;" horiz-adv-x="496" d="M54 471q40 18 95 28.5q55 10.5 115 10.5q52 0 87 -12.5q35 -12.5 55.5 -35.5q20.5 -23 29 -55q8.5 -32 8.5 -72q0 -44 -3 -88.5q-3 -44.5 -3.5 -87.5q-0.5 -43 2.5 -83.5q3 -40.5 15 -76.5l-106 0l-21 69h-5q-20 -31 -55.5 -53.5q-35.5 -22.5 -91.5 -22.5q-35 0 -63 10.5q-28 10.5 -48 30q-20 19.5 -31 46q-11 26.5 -11 59.5q0 46 20.5 77.5q20.5 31.5 59 51q38.5 19.5 92 27q53.5 7.5 119.5 4.5q7 56 -8 80.5q-15 24.5 -67 24.5q-39 0 -82.5 -8q-43.5 -8 -71.5 -21zM219 99q39 0 62 17.5q23 17.5 34 37.5l0 65q-31 3 -59.5 1q-28.5 -2 -50.5 -9q-22 -7 -35 -20q-13 -13 -13 -33q0 -28 16.5 -43.5q16.5 -15.5 45.5 -15.5zt0 0zM91 658h323v-92l-323 0z" />
<glyph unicode="&#258;" horiz-adv-x="605" d="M405 155h-215l-53 -155h-137l252 705h101l252 -705h-144zM225 265h150l-52 156l-21 110h-5l-21 -111zM164 875q20 -26 58 -40q38 -14 85 -14q48 0 82.5 15q34.5 15 54.5 39l49 -32q-12 -29 -32 -50q-20 -21 -45 -35q-25 -14 -53.5 -21q-28.5 -7 -56.5 -7q-27 0 -55.5 6q-28.5 6 -54.5 18.5q-26 12.5 -48 33q-22 20.5 -36 50.5z" />
<glyph unicode="&#259;" horiz-adv-x="496" d="M54 471q40 18 95 28.5q55 10.5 115 10.5q52 0 87 -12.5q35 -12.5 55.5 -35.5q20.5 -23 29 -55q8.5 -32 8.5 -72q0 -44 -3 -88.5q-3 -44.5 -3.5 -87.5q-0.5 -43 2.5 -83.5q3 -40.5 15 -76.5l-106 0l-21 69h-5q-20 -31 -55.5 -53.5q-35.5 -22.5 -91.5 -22.5q-35 0 -63 10.5q-28 10.5 -48 30q-20 19.5 -31 46q-11 26.5 -11 59.5q0 46 20.5 77.5q20.5 31.5 59 51q38.5 19.5 92 27q53.5 7.5 119.5 4.5q7 56 -8 80.5q-15 24.5 -67 24.5q-39 0 -82.5 -8q-43.5 -8 -71.5 -21zM219 99q39 0 62 17.5q23 17.5 34 37.5l0 65q-31 3 -59.5 1q-28.5 -2 -50.5 -9q-22 -7 -35 -20q-13 -13 -13 -33q0 -28 16.5 -43.5q16.5 -15.5 45.5 -15.5zt0 0zM143 720q17 -30 47.5 -44.5q30.5 -14.5 64.5 -14.5q34 0 62.5 15q28.5 15 43.5 44l60 -27q-3 -24 -16.5 -47.5q-13.5 -23.5 -35.5 -41.5q-22 -18 -51.5 -29q-29.5 -11 -63.5 -11q-66 0 -113 33.5q-47 33.5 -61 90.5z" />
<glyph unicode="&#260;" horiz-adv-x="605" d="M405 155h-215l-53 -155h-137l252 705h101l252 -705h-21q-58 -22 -58 -73q0 -26 22 -38.5q22 -12.5 62 7.5l19 -62q-15 -12 -47.5 -23.5q-32.5 -11.5 -67.5 -11.5q-56 0 -85.5 25q-29.5 25 -29.5 66q0 38 23 65.5q23 27.5 64 44.5l-25 0zM225 265h150l-52 156l-21 110h-5l-21 -111z" />
<glyph unicode="&#261;" horiz-adv-x="496" d="M54 466q38 21 89.5 32.5q51.5 11.5 120.5 11.5q52 0 87 -12.5q35 -12.5 55.5 -35.5q20.5 -23 29 -55q8.5 -32 8.5 -72q0 -44 -3 -88.5q-3 -44.5 -3.5 -87.5q-0.5 -43 2.5 -83.5q3 -40.5 15 -76.5l-23 0q-56 -24 -56 -72q0 -26 22 -38.5q22 -12.5 62 7.5l19 -62q-15 -12 -47.5 -23.5q-32.5 -11.5 -67.5 -11.5q-56 0 -85.5 25q-29.5 25 -29.5 66q0 40 26.5 68.5q26.5 28.5 71.5 45.5l-19 64h-5q-20 -31 -55.5 -53.5q-35.5 -22.5 -91.5 -22.5q-35 0 -63 10.5q-28 10.5 -48 30q-20 19.5 -31 46q-11 26.5 -11 59.5q0 46 20.5 77.5q20.5 31.5 58.5 51q38 19.5 91.5 27q53.5 7.5 119.5 4.5q7 56 -7.5 80.5q-14.5 24.5 -66.5 24.5q-39 0 -79.5 -8.5q-40.5 -8.5 -71.5 -22.5zM219 99q39 0 62 17.5q23 17.5 34 37.5l0 65q-31 3 -59.5 1q-28.5 -2 -50.5 -9q-22 -7 -35 -20q-13 -13 -13 -33q0 -28 16.5 -43.5t45.5 -15.5z" />
<glyph unicode="&#262;" horiz-adv-x="559" d="M534 29q-32 -23 -81.5 -33q-49.5 -10 -101.5 -10q-63 0 -119.5 19.5q-56.5 19.5 -99.5 63q-43 43.5 -68.5 113q-25.5 69.5 -25.5 168.5q0 103 28.5 172.5q28.5 69.5 74 112q45.5 42.5 101.5 61q56 18.5 112 18.5q60 0 101.5 -8q41.5 -8 68.5 -19v-116q-50 11 -81.5 16q-31.5 5 -76.5 5q-83 0 -133.5 -59q-50.5 -59 -50.5 -183q0 -54 12 -98.5q12 -44.5 36.5 -76q24.5 -31.5 61 -49q36.5 -17.5 84.5 -17.5q45 0 76 9q31 9 54 23zM376 870h159v-30l-160 -88l-103 0z" />
<glyph unicode="&#263;" horiz-adv-x="433" d="M411 31q-30 -22 -72.5 -33.5q-42.5 -11.5 -87.5 -11.5q-60 0 -101.5 19q-41.5 19 -67.5 53.5q-26 34.5 -37.5 83.5q-11.5 49 -11.5 108q0 127 57 195.5q57 68.5 166 68.5q55 0 88.5 -9q33.5 -9 60.5 -23l-31 -106q-23 11 -45.5 17q-22.5 6 -51.5 6q-54 0 -82 -35.5q-28 -35.5 -28 -113.5q0 -32 7 -59q7 -27 21 -47q14 -20 36.5 -31.5q22.5 -11.5 52.5 -11.5q33 0 56 8.5q23 8.5 41 20.5zM250 720h132v-30l-111 -124l-74 0z" />
<glyph unicode="&#264;" horiz-adv-x="559" d="M534 29q-32 -23 -81.5 -33q-49.5 -10 -101.5 -10q-63 0 -119.5 19.5q-56.5 19.5 -99.5 63q-43 43.5 -68.5 113q-25.5 69.5 -25.5 168.5q0 103 28.5 172.5q28.5 69.5 74 112q45.5 42.5 101.5 61q56 18.5 112 18.5q60 0 101.5 -8q41.5 -8 68.5 -19v-116q-50 11 -81.5 16q-31.5 5 -76.5 5q-83 0 -133.5 -59q-50.5 -59 -50.5 -183q0 -54 12 -98.5q12 -44.5 36.5 -76q24.5 -31.5 61 -49q36.5 -17.5 84.5 -17.5q45 0 76 9q31 9 54 23zM288 870h96l127 -93v-39h-99l-57 41l-20 34l-21 -33l-62 -42h-97l0 40z" />
<glyph unicode="&#265;" horiz-adv-x="433" d="M411 31q-30 -22 -72.5 -33.5q-42.5 -11.5 -87.5 -11.5q-60 0 -101.5 19q-41.5 19 -67.5 53.5q-26 34.5 -37.5 83.5q-11.5 49 -11.5 108q0 127 57 195.5q57 68.5 166 68.5q55 0 88.5 -9q33.5 -9 60.5 -23l-31 -106q-23 11 -45.5 17q-22.5 6 -51.5 6q-54 0 -82 -35.5q-28 -35.5 -28 -113.5q0 -32 7 -59q7 -27 21 -47q14 -20 36.5 -31.5q22.5 -11.5 52.5 -11.5q33 0 56 8.5q23 8.5 41 20.5zM204 732h86l111 -182h-103l-39 66l-17 49l-17 -49l-45 -66l-99 0z" />
<glyph unicode="&#268;" horiz-adv-x="559" d="M534 29q-32 -23 -81.5 -33q-49.5 -10 -101.5 -10q-63 0 -119.5 19.5q-56.5 19.5 -99.5 63q-43 43.5 -68.5 113q-25.5 69.5 -25.5 168.5q0 103 28.5 172.5q28.5 69.5 74 112q45.5 42.5 101.5 61q56 18.5 112 18.5q60 0 101.5 -8q41.5 -8 68.5 -19v-116q-50 11 -81.5 16q-31.5 5 -76.5 5q-83 0 -133.5 -59q-50.5 -59 -50.5 -183q0 -54 12 -98.5q12 -44.5 36.5 -76q24.5 -31.5 61 -49q36.5 -17.5 84.5 -17.5q45 0 76 9q31 9 54 23zM386 737h-94l-127 94v39h105l53 -45l19 -30l21 29l56 46h100l0 -40z" />
<glyph unicode="&#269;" horiz-adv-x="433" d="M411 31q-30 -22 -72.5 -33.5q-42.5 -11.5 -87.5 -11.5q-60 0 -101.5 19q-41.5 19 -67.5 53.5q-26 34.5 -37.5 83.5q-11.5 49 -11.5 108q0 127 57 195.5q57 68.5 166 68.5q55 0 88.5 -9q33.5 -9 60.5 -23l-31 -106q-23 11 -45.5 17q-22.5 6 -51.5 6q-54 0 -82 -35.5q-28 -35.5 -28 -113.5q0 -32 7 -59q7 -27 21 -47q14 -20 36.5 -31.5q22.5 -11.5 52.5 -11.5q33 0 56 8.5q23 8.5 41 20.5zM286 550h-91l-115 182h110l39 -66l16 -49l18 49l45 66l101 0z" />
<glyph unicode="&#270;" horiz-adv-x="647" d="M60 700q21 3 47.5 5q26.5 2 54.5 3q28 1 54.5 1.5q26.5 0.5 47.5 0.5q93 0 159 -26q66 -26 107 -73q41 -47 60 -112q19 -65 19 -143q0 -71 -18 -137q-18 -66 -60 -117q-42 -51 -110.5 -82q-68.5 -31 -169.5 -31q-16 0 -42.5 1q-26.5 1 -55 2.5q-28.5 1.5 -54.5 3q-26 1.5 -39 3.5zM275 588q-22 0 -44.5 -1q-22.5 -1 -33.5 -3l0 -469q4 -1 13.5 -1.5q9.5 -0.5 20.5 -1q11 -0.5 21 -1q10 -0.5 15 -0.5q58 0 96.5 20.5q38.5 20.5 61 54.5q22.5 34 31.5 78.5q9 44.5 9 91.5q0 41 -8 82.5q-8 41.5 -29.5 74.5q-21.5 33 -58.5 54q-37 21 -94 21zt0 0zM328 737h-94l-127 94v39h105l53 -45l19 -30l21 29l56 46h100l0 -40z" />
<glyph unicode="&#271;" horiz-adv-x="639" d="M482 176q0 -42 1 -84q1 -42 9 -93l-93 0l-18 65h-4q-20 -35 -57.5 -56.5q-37.5 -21.5 -88.5 -21.5q-94 0 -146 62q-52 62 -52 194q0 128 58 199q58 71 170 71q31 0 51 -3.5q20 -3.5 40 -11.5l0 203h130zM261 96q38 0 60 18.5q22 18.5 31 53.5l0 212q-14 11 -31 16.5q-17 5.5 -44 5.5q-55 0 -82.5 -37q-27.5 -37 -27.5 -127q0 -64 22.5 -103q22.5 -39 71.5 -39zt0 0zM655 700q-2 -29 -12 -60.5q-10 -31.5 -23.5 -60q-13.5 -28.5 -28.5 -51q-15 -22.5 -27 -32.5l-58 31q17 36 26 81.5q9 45.5 9 91.5z" />
<glyph unicode="&#272;" horiz-adv-x="669" d="M-6 401h88v299q21 3 47.5 5q26.5 2 54.5 3q28 1 54.5 1.5q26.5 0.5 47.5 0.5q93 0 159 -26q66 -26 107 -73q41 -47 60 -112q19 -65 19 -143q0 -71 -18 -137q-18 -66 -60 -117q-42 -51 -110.5 -82q-68.5 -31 -169.5 -31q-16 0 -42.5 1q-26.5 1 -55 2.5q-28.5 1.5 -54.5 3q-26 1.5 -39 3.5l0 322h-88zM297 588q-22 0 -44.5 -1q-22.5 -1 -33.5 -3l0 -183h140v-80h-140v-207q4 -1 13.5 -1.5q9.5 -0.5 20.5 -1q11 -0.5 21 -0.5q10 0 15 0q58 0 96.5 20.5q38.5 20.5 61 54.5q22.5 34 31.5 78.5q9 44.5 9 91.5q0 41 -8 82.5q-8 41.5 -29.5 74.5q-21.5 33 -58.5 54t-94 21z" />
<glyph unicode="&#273;" horiz-adv-x="550" d="M482 641h76v-80h-76v-385q0 -42 1 -84q1 -42 9 -93l-93 0l-18 65h-4q-20 -35 -57.5 -56.5q-37.5 -21.5 -88.5 -21.5q-94 0 -146 62q-52 62 -52 194q0 128 58 199q58 71 170 71q31 0 51 -3.5q20 -3.5 40 -11.5l0 64h-148v80h148v59h130zM261 96q38 0 60 18.5q22 18.5 31 53.5l0 212q-14 11 -31 16.5q-17 5.5 -44 5.5q-55 0 -82.5 -37q-27.5 -37 -27.5 -127q0 -64 22.5 -103t71.5 -39z" />
<glyph unicode="&#274;" horiz-adv-x="522" d="M60 700h415v-122h-278v-163h253v-122h-253v-171h283v-122h-420zM95 856h343v-89l-343 0z" />
<glyph unicode="&#275;" horiz-adv-x="508" d="M457 43q-30 -24 -81.5 -40.5q-51.5 -16.5 -109.5 -16.5q-121 0 -177 70.5q-56 70.5 -56 193.5q0 132 63 198q63 66 177 66q38 0 74 -10q36 -10 64 -33q28 -23 45 -62q17 -39 17 -97q0 -21 -2.5 -45q-2.5 -24 -7.5 -50l-300 0q3 -63 32.5 -95q29.5 -32 95.5 -32q41 0 73.5 12.5q32.5 12.5 49.5 25.5zM271 410q-51 0 -75.5 -30.5q-24.5 -30.5 -29.5 -81.5l186 0q4 54 -16.5 83q-20.5 29 -64.5 29zt0 0zM97 658h323v-92l-323 0z" />
<glyph unicode="&#278;" horiz-adv-x="522" d="M60 700h415v-122h-278v-163h253v-122h-253v-171h283v-122h-420zM191 799q0 25 21.5 43q21.5 18 64.5 18q43 0 66 -18q23 -18 23 -43q0 -26 -23 -44q-23 -18 -66 -18q-43 0 -64.5 18t-21.5 44z" />
<glyph unicode="&#279;" horiz-adv-x="508" d="M457 43q-30 -24 -81.5 -40.5q-51.5 -16.5 -109.5 -16.5q-121 0 -177 70.5q-56 70.5 -56 193.5q0 132 63 198q63 66 177 66q38 0 74 -10q36 -10 64 -33q28 -23 45 -62q17 -39 17 -97q0 -21 -2.5 -45q-2.5 -24 -7.5 -50l-300 0q3 -63 32.5 -95q29.5 -32 95.5 -32q41 0 73.5 12.5q32.5 12.5 49.5 25.5zM271 410q-51 0 -75.5 -30.5q-24.5 -30.5 -29.5 -81.5l186 0q4 54 -16.5 83q-20.5 29 -64.5 29zt0 0zM186 641q0 29 21.5 49.5q21.5 20.5 59.5 20.5q38 0 61.5 -20.5q23.5 -20.5 23.5 -49.5q0 -29 -23.5 -48.5q-23.5 -19.5 -61.5 -19.5q-38 0 -59.5 19.5t-21.5 48.5z" />
<glyph unicode="&#280;" horiz-adv-x="522" d="M60 700h415v-122h-278v-163h253v-122h-253v-171h283v-122h-27q-58 -22 -58 -73q0 -18 11 -30.5q11 -12.5 31 -12.5q18 0 42 12l19 -62q-15 -12 -47.5 -23.5q-32.5 -11.5 -67.5 -11.5q-56 0 -85.5 25q-29.5 25 -29.5 66q0 38 23 65.5q23 27.5 64 44.5l-295 0z" />
<glyph unicode="&#281;" horiz-adv-x="508" d="M457 43q-25 -20 -66 -35q-48 -31 -48 -76q0 -13 6 -23.5q6 -10.5 16.5 -16.5q10.5 -6 26 -5.5q15.5 0.5 35.5 10.5l19 -62q-15 -12 -47 -24q-32 -12 -67 -12q-57 0 -86.5 27.5q-29.5 27.5 -29.5 68.5q0 28 12 51q12 23 34 40q-118 1 -173 70q-56 71 -56 194q0 132 63 198q63 66 177 66q38 0 74 -10q36 -10 64 -33q28 -23 45 -62q17 -39 17 -97q0 -21 -2.5 -45q-2.5 -24 -7.5 -50l-300 0q3 -63 32.5 -95q29.5 -32 95.5 -32q41 0 73.5 12.5q32.5 12.5 49.5 25.5zM271 410q-51 0 -75.5 -30.5q-24.5 -30.5 -29.5 -81.5l186 0q4 54 -16.5 83t-64.5 29z" />
<glyph unicode="&#282;" horiz-adv-x="522" d="M60 700h415v-122h-278v-163h253v-122h-253v-171h283v-122h-420zM308 737h-94l-127 94v39h105l53 -45l19 -30l21 29l56 46h100l0 -40z" />
<glyph unicode="&#283;" horiz-adv-x="508" d="M457 43q-30 -24 -81.5 -40.5q-51.5 -16.5 -109.5 -16.5q-121 0 -177 70.5q-56 70.5 -56 193.5q0 132 63 198q63 66 177 66q38 0 74 -10q36 -10 64 -33q28 -23 45 -62q17 -39 17 -97q0 -21 -2.5 -45q-2.5 -24 -7.5 -50l-300 0q3 -63 32.5 -95q29.5 -32 95.5 -32q41 0 73.5 12.5q32.5 12.5 49.5 25.5zM271 410q-51 0 -75.5 -30.5q-24.5 -30.5 -29.5 -81.5l186 0q4 54 -16.5 83q-20.5 29 -64.5 29zt0 0zM304 550h-91l-115 182h110l39 -66l16 -49l18 49l45 66l101 0z" />
<glyph unicode="&#284;" horiz-adv-x="609" d="M307 365h261v-312q-42 -35 -100.5 -51q-58.5 -16 -115.5 -16q-67 0 -124.5 21q-57.5 21 -99.5 65.5q-42 44.5 -66 113.5q-24 69 -24 164q0 99 28.5 168.5q28.5 69.5 75 113q46.5 43.5 104.5 63q58 19.5 118 19.5q60 0 105.5 -9q45.5 -9 72.5 -19l-28 -115q-25 10 -56 15.5q-31 5.5 -79 5.5q-43 0 -79 -13q-36 -13 -62.5 -42.5q-26.5 -29.5 -41 -75.5q-14.5 -46 -14.5 -112q0 -63 14 -108.5q14 -45.5 39 -75q25 -29.5 58.5 -43.5q33.5 -14 71.5 -14q26 0 51 6.5q25 6.5 42 19.5l0 132l-151 16zM303 870h96l127 -93v-39h-99l-57 41l-20 34l-21 -33l-62 -42h-97l0 40z" />
<glyph unicode="&#285;" horiz-adv-x="536" d="M480 0q0 -109 -59 -160.5q-59 -51.5 -165 -51.5q-72 0 -113.5 10q-41.5 10 -62.5 21l27 103q23 -9 53.5 -18q30.5 -9 75.5 -9q68 0 92.5 29.5q24.5 29.5 24.5 82.5v32h-4q-35 -47 -124 -47q-97 0 -144.5 60q-47.5 60 -47.5 188q0 134 64 203q64 69 186 69q64 0 114.5 -9q50.5 -9 82.5 -21zM260 96q38 0 58.5 17q20.5 17 31.5 51l0 225q-31 13 -77 13q-50 0 -78 -37.5q-28 -37.5 -28 -119.5q0 -73 24 -111q24 -38 69 -38zt0 0zM238 732h86l111 -182h-103l-39 66l-17 49l-17 -49l-45 -66l-99 0z" />
<glyph unicode="&#286;" horiz-adv-x="609" d="M307 365h261v-312q-42 -35 -100.5 -51q-58.5 -16 -115.5 -16q-67 0 -124.5 21q-57.5 21 -99.5 65.5q-42 44.5 -66 113.5q-24 69 -24 164q0 99 28.5 168.5q28.5 69.5 75 113q46.5 43.5 104.5 63q58 19.5 118 19.5q60 0 105.5 -9q45.5 -9 72.5 -19l-28 -115q-25 10 -56 15.5q-31 5.5 -79 5.5q-43 0 -79 -13q-36 -13 -62.5 -42.5q-26.5 -29.5 -41 -75.5q-14.5 -46 -14.5 -112q0 -63 14 -108.5q14 -45.5 39 -75q25 -29.5 58.5 -43.5q33.5 -14 71.5 -14q26 0 51 6.5q25 6.5 42 19.5l0 132l-151 16zM196 875q20 -26 58 -40q38 -14 85 -14q48 0 82.5 15q34.5 15 54.5 39l49 -32q-12 -29 -32 -50q-20 -21 -45 -35q-25 -14 -53.5 -21q-28.5 -7 -56.5 -7q-27 0 -55.5 6q-28.5 6 -54.5 18.5q-26 12.5 -48 33q-22 20.5 -36 50.5z" />
<glyph unicode="&#287;" horiz-adv-x="536" d="M480 0q0 -109 -59 -160.5q-59 -51.5 -165 -51.5q-72 0 -113.5 10q-41.5 10 -62.5 21l27 103q23 -9 53.5 -18q30.5 -9 75.5 -9q68 0 92.5 29.5q24.5 29.5 24.5 82.5v32h-4q-35 -47 -124 -47q-97 0 -144.5 60q-47.5 60 -47.5 188q0 134 64 203q64 69 186 69q64 0 114.5 -9q50.5 -9 82.5 -21zM260 96q38 0 58.5 17q20.5 17 31.5 51l0 225q-31 13 -77 13q-50 0 -78 -37.5q-28 -37.5 -28 -119.5q0 -73 24 -111q24 -38 69 -38zt0 0zM158 720q17 -30 47.5 -44.5q30.5 -14.5 64.5 -14.5q34 0 62.5 15q28.5 15 43.5 44l60 -27q-3 -24 -16.5 -47.5q-13.5 -23.5 -35.5 -41.5q-22 -18 -51.5 -29q-29.5 -11 -63.5 -11q-66 0 -113 33.5q-47 33.5 -61 90.5z" />
<glyph unicode="&#290;" horiz-adv-x="609" d="M307 365h261v-312q-42 -35 -100.5 -51q-58.5 -16 -115.5 -16q-67 0 -124.5 21q-57.5 21 -99.5 65.5q-42 44.5 -66 113.5q-24 69 -24 164q0 99 28.5 168.5q28.5 69.5 75 113q46.5 43.5 104.5 63q58 19.5 118 19.5q60 0 105.5 -9q45.5 -9 72.5 -19l-28 -115q-25 10 -56 15.5q-31 5.5 -79 5.5q-43 0 -79 -13q-36 -13 -62.5 -42.5q-26.5 -29.5 -41 -75.5q-14.5 -46 -14.5 -112q0 -63 14 -108.5q14 -45.5 39 -75q25 -29.5 58.5 -43.5q33.5 -14 71.5 -14q26 0 51 6.5q25 6.5 42 19.5l0 132l-151 16zM278 -105q0 29 19.5 46q19.5 17 48.5 17q35 0 57 -23q22 -23 22 -65q0 -33 -11 -58q-11 -25 -27 -42.5q-16 -17.5 -34 -28q-18 -10.5 -31 -14.5l-34 54q14 7 28 19.5q14 12.5 16 33.5q-20 -1 -37 14.5t-17 46.5z" />
<glyph unicode="&#291;" horiz-adv-x="536" d="M480 0q0 -109 -59 -160.5q-59 -51.5 -165 -51.5q-72 0 -113.5 10q-41.5 10 -62.5 21l27 103q23 -9 53.5 -18q30.5 -9 75.5 -9q68 0 92.5 29.5q24.5 29.5 24.5 82.5v32h-4q-35 -47 -124 -47q-97 0 -144.5 60q-47.5 60 -47.5 188q0 134 64 203q64 69 186 69q64 0 114.5 -9q50.5 -9 82.5 -21zM260 96q38 0 58.5 17q20.5 17 31.5 51l0 225q-31 13 -77 13q-50 0 -78 -37.5q-28 -37.5 -28 -119.5q0 -73 24 -111q24 -38 69 -38zt0 0zM359 614q0 -29 -19.5 -46q-19.5 -17 -48.5 -17q-35 0 -57 23q-22 23 -22 65q0 33 11 58q11 25 27 42.5q16 17.5 34 28q18 10.5 31 14.5l34 -54q-14 -7 -28 -19.5q-14 -12.5 -16 -33.5q20 1 37 -14.5t17 -46.5z" />
<glyph unicode="&#292;" horiz-adv-x="651" d="M453 293h-256v-293h-137v700h137v-285h256v285h137v-700h-137zM278 870h96l127 -93v-39h-99l-57 41l-20 34l-21 -33l-62 -42h-97l0 40z" />
<glyph unicode="&#293;" horiz-adv-x="545" d="M363 0v284q0 61 -17 88q-17 27 -62 27q-33 0 -60.5 -22.5q-27.5 -22.5 -36.5 -57.5l0 -319h-130v700h130v-256h4q24 32 59 51q35 19 89 19q38 0 67 -10q29 -10 48.5 -33q19.5 -23 29 -62.5q9.5 -39.5 9.5 -97.5v-311zM87 870h96l127 -93v-39h-99l-57 41l-20 34l-21 -33l-62 -42h-97l0 40z" />
<glyph unicode="&#294;" horiz-adv-x="683" d="M2 598h75v102h137v-102h256v102h137v-102h74v-82h-74v-516h-137v293h-256v-293h-137v516h-75zM470 415v101h-256l0 -101z" />
<glyph unicode="&#295;" horiz-adv-x="556" d="M-6 641h74v59h130v-59h161v-80h-161v-117h4q24 32 59 51q35 19 89 19q38 0 67 -10q29 -10 48.5 -33q19.5 -23 29 -62.5q9.5 -39.5 9.5 -97.5v-311h-130v284q0 61 -17 88q-17 27 -62 27q-33 0 -60.5 -22.5q-27.5 -22.5 -36.5 -57.5l0 -319h-130v561l-74 0z" />
<glyph unicode="&#298;" horiz-adv-x="285" d="M74 700h137v-700h-137zM-26 856h343v-89l-343 0z" />
<glyph unicode="&#299;" horiz-adv-x="269" d="M70 500h130v-500h-130zM-28 658h323v-92l-323 0z" />
<glyph unicode="&#302;" horiz-adv-x="285" d="M74 700h137v-700h-14q-23 -12 -36 -30q-13 -18 -12 -43q0 -18 11 -30.5q11 -12.5 31 -12.5q17 0 41 12l20 -62q-15 -12 -47.5 -24q-32.5 -12 -67.5 -12q-57 0 -86 25.5q-29 25.5 -29 66.5q0 38 23 65.5q23 27.5 64 44.5l-35 0z" />
<glyph unicode="&#303;" horiz-adv-x="270" d="M70 500h130v-500h-13q-23 -14 -35 -32q-12 -18 -12 -41q1 -18 12 -30.5q11 -12.5 31 -12.5q17 0 41 12l19 -62q-15 -12 -47 -24q-32 -12 -67 -12q-57 0 -86.5 25.5q-29.5 25.5 -29.5 66.5q0 38 23 65.5q23 27.5 64 44.5l-30 0zM51 641q0 29 21.5 49.5q21.5 20.5 59.5 20.5q38 0 61.5 -20.5q23.5 -20.5 23.5 -49.5q0 -29 -23.5 -48.5q-23.5 -19.5 -61.5 -19.5q-38 0 -59.5 19.5t-21.5 48.5z" />
<glyph unicode="&#304;" horiz-adv-x="285" d="M74 700h137v-700h-137zM56 799q0 25 21.5 43q21.5 18 64.5 18q43 0 66 -18q23 -18 23 -43q0 -26 -23 -44q-23 -18 -66 -18q-43 0 -64.5 18t-21.5 44z" />
<glyph unicode="&#305;" horiz-adv-x="269" d="M70 500h130v-500l-130 0z" />
<glyph unicode="&#308;" horiz-adv-x="334" d="M131 700h137v-512q0 -40 -9 -76q-9 -36 -29.5 -63.5q-20.5 -27.5 -52.5 -44q-32 -16.5 -78 -16.5q-29 0 -63 6q-34 6 -59 17l30 112q26 -13 59 -13q42 0 53.5 31q11.5 31 11.5 82zM153 870h96l127 -93v-39h-99l-57 41l-20 34l-21 -33l-62 -42h-97l0 40z" />
<glyph unicode="&#309;" horiz-adv-x="268" d="M69 500h130v-521q0 -91 -36 -139q-36 -48 -115 -48q-30 0 -64 7l0 109q4 0 7 -0.5q3 -0.5 6 -0.5q45 0 58.5 29q13.5 29 13.5 80zM96 732h86l111 -182h-103l-39 66l-17 49l-17 -49l-45 -66l-99 0z" />
<glyph unicode="&#310;" horiz-adv-x="620" d="M233 299h-36v-299h-137v700h137v-310l32 14l193 296h156l-204 -294l-54 -38l56 -39l233 -329h-169zM221 -105q0 29 19.5 46q19.5 17 48.5 17q35 0 57 -23q22 -23 22 -65q0 -33 -11 -58q-11 -25 -27 -42.5q-16 -17.5 -34 -28q-18 -10.5 -31 -14.5l-34 54q14 7 28 19.5q14 12.5 16 33.5q-20 -1 -37 14.5t-17 46.5z" />
<glyph unicode="&#311;" horiz-adv-x="491" d="M222 207h-35v-207h-130v700h130v-413l30 14l114 199h143l-120 -190l-51 -38l55 -39l135 -233h-149zM179 -105q0 29 19.5 46q19.5 17 48.5 17q35 0 57 -23q22 -23 22 -65q0 -33 -11 -58q-11 -25 -27 -42.5q-16 -17.5 -34 -28q-18 -10.5 -31 -14.5l-34 54q14 7 28 19.5q14 12.5 16 33.5q-20 -1 -37 14.5t-17 46.5z" />
<glyph unicode="&#313;" horiz-adv-x="514" d="M503 0h-443v700h137v-578h306zM208 870h159v-30l-160 -88l-103 0z" />
<glyph unicode="&#314;" horiz-adv-x="294" d="M191 168q0 -35 9 -51q9 -16 29 -16q12 0 23.5 2q11.5 2 28.5 9l14 -102q-16 -8 -49 -16q-33 -8 -68 -8q-57 0 -87 26.5q-30 26.5 -30 87.5v600h130zM174 870h159v-30l-160 -88l-103 0z" />
<glyph unicode="&#315;" horiz-adv-x="514" d="M503 0h-443v700h137v-578h306zM181 -105q0 29 19.5 46q19.5 17 48.5 17q35 0 57 -23q22 -23 22 -65q0 -33 -11 -58q-11 -25 -27 -42.5q-16 -17.5 -34 -28q-18 -10.5 -31 -14.5l-34 54q14 7 28 19.5q14 12.5 16 33.5q-20 -1 -37 14.5t-17 46.5z" />
<glyph unicode="&#316;" horiz-adv-x="294" d="M191 168q0 -35 9 -51q9 -16 29 -16q12 0 23.5 2q11.5 2 28.5 9l14 -102q-16 -8 -49 -16q-33 -8 -68 -8q-57 0 -87 26.5q-30 26.5 -30 87.5v600h130zM95 -105q0 29 19.5 46q19.5 17 48.5 17q35 0 57 -23q22 -23 22 -65q0 -33 -11 -58q-11 -25 -27 -42.5q-16 -17.5 -34 -28q-18 -10.5 -31 -14.5l-34 54q14 7 28 19.5q14 12.5 16 33.5q-20 -1 -37 14.5t-17 46.5z" />
<glyph unicode="&#317;" horiz-adv-x="514" d="M503 0h-443v700h137v-578h306zM463 700q-2 -29 -12 -60.5q-10 -31.5 -23.5 -60q-13.5 -28.5 -28.5 -51q-15 -22.5 -27 -32.5l-58 31q17 36 26 81.5q9 45.5 9 91.5z" />
<glyph unicode="&#318;" horiz-adv-x="294" d="M191 168q0 -35 9 -51q9 -16 29 -16q12 0 23.5 2q11.5 2 28.5 9l14 -102q-16 -8 -49 -16q-33 -8 -68 -8q-57 0 -87 26.5q-30 26.5 -30 87.5v600h130zM366 700q-2 -29 -12 -60.5q-10 -31.5 -23.5 -60q-13.5 -28.5 -28.5 -51q-15 -22.5 -27 -32.5l-58 31q17 36 26 81.5q9 45.5 9 91.5z" />
<glyph unicode="&#321;" horiz-adv-x="525" d="M3 318l68 45v337h137v-245l100 67v-125l-100 -66v-209h306v-122h-443v241l-68 -44z" />
<glyph unicode="&#322;" horiz-adv-x="319" d="M6 307l79 53v340h130v-253l96 64v-125l-96 -63v-155q0 -35 9 -51q9 -16 29 -16q12 0 23.5 2q11.5 2 28.5 9l14 -102q-16 -8 -49 -16q-33 -8 -68 -8q-57 0 -87 26.5q-30 26.5 -30 87.5v138l-79 -52z" />
<glyph unicode="&#323;" horiz-adv-x="657" d="M234 365l-55 110h-5l16 -110v-365h-130v705h100l265 -373l53 -107h5l-16 107v368h130v-705h-100zM366 870h159v-30l-160 -88l-103 0z" />
<glyph unicode="&#324;" horiz-adv-x="545" d="M363 0v284q0 61 -17.5 88q-17.5 27 -59.5 27q-37 0 -62.5 -21.5q-25.5 -21.5 -36.5 -53.5l0 -324h-130v500h103l15 -66h4q23 32 61 56q38 24 98 24q37 0 66 -10q29 -10 49 -33q20 -23 30 -62.5q10 -39.5 10 -97.5v-311zM277 720h132v-30l-111 -124l-74 0z" />
<glyph unicode="&#325;" horiz-adv-x="657" d="M234 365l-55 110h-5l16 -110v-365h-130v705h100l265 -373l53 -107h5l-16 107v368h130v-705h-100zM254 -105q0 29 19.5 46q19.5 17 48.5 17q35 0 57 -23q22 -23 22 -65q0 -33 -11 -58q-11 -25 -27 -42.5q-16 -17.5 -34 -28q-18 -10.5 -31 -14.5l-34 54q14 7 28 19.5q14 12.5 16 33.5q-20 -1 -37 14.5t-17 46.5z" />
<glyph unicode="&#326;" horiz-adv-x="545" d="M363 0v284q0 61 -17.5 88q-17.5 27 -59.5 27q-37 0 -62.5 -21.5q-25.5 -21.5 -36.5 -53.5l0 -324h-130v500h103l15 -66h4q23 32 61 56q38 24 98 24q37 0 66 -10q29 -10 49 -33q20 -23 30 -62.5q10 -39.5 10 -97.5v-311zM198 -105q0 29 19.5 46q19.5 17 48.5 17q35 0 57 -23q22 -23 22 -65q0 -33 -11 -58q-11 -25 -27 -42.5q-16 -17.5 -34 -28q-18 -10.5 -31 -14.5l-34 54q14 7 28 19.5q14 12.5 16 33.5q-20 -1 -37 14.5t-17 46.5z" />
<glyph unicode="&#327;" horiz-adv-x="657" d="M234 365l-55 110h-5l16 -110v-365h-130v705h100l265 -373l53 -107h5l-16 107v368h130v-705h-100zM377 737h-94l-127 94v39h105l53 -45l19 -30l21 29l56 46h100l0 -40z" />
<glyph unicode="&#328;" horiz-adv-x="545" d="M363 0v284q0 61 -17.5 88q-17.5 27 -59.5 27q-37 0 -62.5 -21.5q-25.5 -21.5 -36.5 -53.5l0 -324h-130v500h103l15 -66h4q23 32 61 56q38 24 98 24q37 0 66 -10q29 -10 49 -33q20 -23 30 -62.5q10 -39.5 10 -97.5v-311zM318 550h-91l-115 182h110l39 -66l16 -49l18 49l45 66l101 0z" />
<glyph unicode="&#332;" horiz-adv-x="670" d="M38 350q0 175 77 269.5q77 94.5 220 94.5q75 0 131 -26q56 -26 93 -74q37 -48 55 -115q18 -67 18 -149q0 -175 -77.5 -269.5q-77.5 -94.5 -219.5 -94.5q-76 0 -132 26q-56 26 -92.5 74q-36.5 48 -54.5 115q-18 67 -18 149zt0 0zM182 350q0 -53 9 -97.5q9 -44.5 27.5 -76.5q18.5 -32 47.5 -50q29 -18 69 -18q73 0 113 57q40 57 40 185q0 51 -8.5 95q-8.5 44 -26.5 77q-18 33 -47 51.5q-29 18.5 -71 18.5q-73 0 -113 -58.5q-40 -58.5 -40 -183.5zt0 0zM167 856h343v-89l-343 0z" />
<glyph unicode="&#333;" horiz-adv-x="537" d="M33 250q0 127 62 195.5q62 68.5 174 68.5q60 0 104 -19q44 -19 73 -53.5q29 -34.5 43.5 -83.5q14.5 -49 14.5 -108q0 -127 -61.5 -195.5q-61.5 -68.5 -173.5 -68.5q-60 0 -104 19q-44 19 -73.5 53.5q-29.5 34.5 -44 83.5q-14.5 49 -14.5 108zt0 0zM167 250q0 -33 6 -61q6 -28 18 -49q12 -21 31.5 -32.5q19.5 -11.5 46.5 -11.5q51 0 76 37q25 37 25 117q0 69 -23 111.5q-23 42.5 -78 42.5q-48 0 -75 -36q-27 -36 -27 -118zt0 0zM107 658h323v-92l-323 0z" />
<glyph unicode="&#336;" horiz-adv-x="670" d="M38 350q0 175 77 269.5q77 94.5 220 94.5q75 0 131 -26q56 -26 93 -74q37 -48 55 -115q18 -67 18 -149q0 -175 -77.5 -269.5q-77.5 -94.5 -219.5 -94.5q-76 0 -132 26q-56 26 -92.5 74q-36.5 48 -54.5 115q-18 67 -18 149zt0 0zM182 350q0 -53 9 -97.5q9 -44.5 27.5 -76.5q18.5 -32 47.5 -50q29 -18 69 -18q73 0 113 57q40 57 40 185q0 51 -8.5 95q-8.5 44 -26.5 77q-18 33 -47 51.5q-29 18.5 -71 18.5q-73 0 -113 -58.5q-40 -58.5 -40 -183.5zt0 0zM250 850h134v-16l-100 -93h-93zM448 850h140v-16l-143 -93l-94 0z" />
<glyph unicode="&#337;" horiz-adv-x="537" d="M33 250q0 127 62 195.5q62 68.5 174 68.5q60 0 104 -19q44 -19 73 -53.5q29 -34.5 43.5 -83.5q14.5 -49 14.5 -108q0 -127 -61.5 -195.5q-61.5 -68.5 -173.5 -68.5q-60 0 -104 19q-44 19 -73.5 53.5q-29.5 34.5 -44 83.5q-14.5 49 -14.5 108zt0 0zM167 250q0 -33 6 -61q6 -28 18 -49q12 -21 31.5 -32.5q19.5 -11.5 46.5 -11.5q51 0 76 37q25 37 25 117q0 69 -23 111.5q-23 42.5 -78 42.5q-48 0 -75 -36q-27 -36 -27 -118zt0 0zM180 700h119v-16l-76 -113h-78zM358 700h126v-16l-118 -113l-81 0z" />
<glyph unicode="&#338;" horiz-adv-x="915" d="M453 567q-21 11 -51 18q-30 7 -67 7q-73 0 -113 -58.5q-40 -58.5 -40 -183.5q0 -53 9 -97.5q9 -44.5 28.5 -76.5q19.5 -32 49.5 -50q30 -18 73 -18q29 0 55.5 3.5q26.5 3.5 55.5 15.5zM453 0q-19 -7 -52.5 -10.5q-33.5 -3.5 -65.5 -3.5q-76 0 -132 26q-56 26 -92.5 74q-36.5 48 -54.5 115q-18 67 -18 149q0 175 77 269.5q77 94.5 220 94.5q39 0 67.5 -4.5q28.5 -4.5 50.5 -9.5l415 0v-122h-278v-163h253v-122h-253v-171h283l0 -122z" />
<glyph unicode="&#339;" horiz-adv-x="841" d="M167 250q0 -33 6 -61q6 -28 18 -49q12 -21 31.5 -32.5q19.5 -11.5 46.5 -11.5q51 0 76 37q25 37 25 117q0 69 -23 111.5q-23 42.5 -78 42.5q-48 0 -75 -36q-27 -36 -27 -118zt0 0zM431 60q-25 -33 -64.5 -53.5q-39.5 -20.5 -97.5 -20.5q-60 0 -104 19q-44 19 -73.5 53.5q-29.5 34.5 -44 83.5q-14.5 49 -14.5 108q0 127 62 195.5q62 68.5 174 68.5q66 0 106 -22.5q40 -22.5 63 -49.5q23 29 63.5 50.5q40.5 21.5 104.5 21.5q38 0 74 -10q36 -10 64 -33q28 -23 45 -62q17 -39 17 -97q0 -21 -2.5 -45q-2.5 -24 -7.5 -50l-301 0q3 -63 33 -95q30 -32 96 -32q41 0 73.5 12.5q32.5 12.5 49.5 25.5l43 -85q-30 -24 -81.5 -40.5q-51.5 -16.5 -109.5 -16.5q-111 0 -168 74zt0 0zM604 410q-51 0 -75.5 -30.5q-24.5 -30.5 -29.5 -81.5l186 0q0 4 0.5 8q0.5 4 0.5 8q0 46 -20.5 71t-61.5 25z" />
<glyph unicode="&#340;" horiz-adv-x="602" d="M60 693q23 4 49.5 7.5q26.5 3.5 53 5.5q26.5 2 51.5 3q25 1 46 1q49 0 96.5 -9q47.5 -9 85 -31q37.5 -22 60 -60.5q22.5 -38.5 22.5 -96.5q0 -86 -40 -140q-40 -54 -107 -75l49 -31l160 -267h-158l-159 274l-72 13v-287h-137zM270 588q-21 0 -41.5 -1q-20.5 -1 -31.5 -4l0 -203h58q57 0 91 26q34 26 34 86q0 45 -28 70.5q-28 25.5 -82 25.5zt0 0zM292 870h159v-30l-160 -88l-103 0z" />
<glyph unicode="&#341;" horiz-adv-x="351" d="M333 378q-31 11 -56 11q-35 0 -58.5 -18.5q-23.5 -18.5 -31.5 -47.5l0 -323h-130v500h101l15 -66h4q17 37 46 57q29 20 68 20q26 0 59 -11zM172 720h132v-30l-111 -124l-74 0z" />
<glyph unicode="&#342;" horiz-adv-x="602" d="M60 693q23 4 49.5 7.5q26.5 3.5 53 5.5q26.5 2 51.5 3q25 1 46 1q49 0 96.5 -9q47.5 -9 85 -31q37.5 -22 60 -60.5q22.5 -38.5 22.5 -96.5q0 -86 -40 -140q-40 -54 -107 -75l49 -31l160 -267h-158l-159 274l-72 13v-287h-137zM270 588q-21 0 -41.5 -1q-20.5 -1 -31.5 -4l0 -203h58q57 0 91 26q34 26 34 86q0 45 -28 70.5q-28 25.5 -82 25.5zt0 0zM228 -105q0 29 19.5 46q19.5 17 48.5 17q35 0 57 -23q22 -23 22 -65q0 -33 -11 -58q-11 -25 -27 -42.5q-16 -17.5 -34 -28q-18 -10.5 -31 -14.5l-34 54q14 7 28 19.5q14 12.5 16 33.5q-20 -1 -37 14.5t-17 46.5z" />
<glyph unicode="&#343;" horiz-adv-x="351" d="M333 378q-31 11 -56 11q-35 0 -58.5 -18.5q-23.5 -18.5 -31.5 -47.5l0 -323h-130v500h101l15 -66h4q17 37 46 57q29 20 68 20q26 0 59 -11zM85 -105q0 29 19.5 46q19.5 17 48.5 17q35 0 57 -23q22 -23 22 -65q0 -33 -11 -58q-11 -25 -27 -42.5q-16 -17.5 -34 -28q-18 -10.5 -31 -14.5l-34 54q14 7 28 19.5q14 12.5 16 33.5q-20 -1 -37 14.5t-17 46.5z" />
<glyph unicode="&#344;" horiz-adv-x="602" d="M60 693q23 4 49.5 7.5q26.5 3.5 53 5.5q26.5 2 51.5 3q25 1 46 1q49 0 96.5 -9q47.5 -9 85 -31q37.5 -22 60 -60.5q22.5 -38.5 22.5 -96.5q0 -86 -40 -140q-40 -54 -107 -75l49 -31l160 -267h-158l-159 274l-72 13v-287h-137zM270 588q-21 0 -41.5 -1q-20.5 -1 -31.5 -4l0 -203h58q57 0 91 26q34 26 34 86q0 45 -28 70.5q-28 25.5 -82 25.5zt0 0zM303 737h-94l-127 94v39h105l53 -45l19 -30l21 29l56 46h100l0 -40z" />
<glyph unicode="&#345;" horiz-adv-x="351" d="M333 378q-31 11 -56 11q-35 0 -58.5 -18.5q-23.5 -18.5 -31.5 -47.5l0 -323h-130v500h101l15 -66h4q17 37 46 57q29 20 68 20q26 0 59 -11zM238 550h-91l-115 182h110l39 -66l16 -49l18 49l45 66l101 0z" />
<glyph unicode="&#346;" horiz-adv-x="530" d="M362 188q0 32 -23.5 52q-23.5 20 -59 36.5q-35.5 16.5 -77 34q-41.5 17.5 -77 43q-35.5 25.5 -59 63.5q-23.5 38 -23.5 97q0 51 17 88.5q17 37.5 48.5 62.5q31.5 25 74.5 37q43 12 96 12q61 0 115 -10.5q54 -10.5 89 -30.5l-43 -115q-22 14 -66 25.5q-44 11.5 -95 11.5q-48 0 -73.5 -19q-25.5 -19 -25.5 -51q0 -30 23.5 -50q23.5 -20 59 -37q35.5 -17 77 -35q41.5 -18 77 -43.5q35.5 -25.5 59 -63q23.5 -37.5 23.5 -93.5q0 -56 -18.5 -96.5q-18.5 -40.5 -52 -67.5q-33.5 -27 -81 -40q-47.5 -13 -104.5 -13q-75 0 -132 14q-57 14 -84 28l44 117q11 -6 28.5 -13q17.5 -7 39.5 -13q22 -6 46.5 -10q24.5 -4 50.5 -4q61 0 93.5 20.5q32.5 20.5 32.5 62.5zt0 0zM302 870h159v-30l-160 -88l-103 0z" />
<glyph unicode="&#347;" horiz-adv-x="422" d="M264 138q0 20 -17 32q-17 12 -42 22q-25 10 -55 20.5q-30 10.5 -55 29q-25 18.5 -42 47q-17 28.5 -17 73.5q0 74 44 113q44 39 127 39q57 0 103 -12q46 -12 72 -27l-29 -94q-23 9 -58 19q-35 10 -71 10q-58 0 -58 -45q0 -18 17 -29q17 -11 42 -20.5q25 -9.5 55 -20.5q30 -11 55 -28.5q25 -17.5 42 -45.5q17 -28 17 -72q0 -76 -48.5 -119.5q-48.5 -43.5 -145.5 -43.5q-53 0 -99.5 13.5q-46.5 13.5 -75.5 31.5l36 97q23 -13 61 -25.5q38 -12.5 78 -12.5q29 0 46.5 11q17.5 11 17.5 37zt0 0zM208 720h132v-30l-111 -124l-74 0z" />
<glyph unicode="&#348;" horiz-adv-x="530" d="M362 188q0 32 -23.5 52q-23.5 20 -59 36.5q-35.5 16.5 -77 34q-41.5 17.5 -77 43q-35.5 25.5 -59 63.5q-23.5 38 -23.5 97q0 51 17 88.5q17 37.5 48.5 62.5q31.5 25 74.5 37q43 12 96 12q61 0 115 -10.5q54 -10.5 89 -30.5l-43 -115q-22 14 -66 25.5q-44 11.5 -95 11.5q-48 0 -73.5 -19q-25.5 -19 -25.5 -51q0 -30 23.5 -50q23.5 -20 59 -37q35.5 -17 77 -35q41.5 -18 77 -43.5q35.5 -25.5 59 -63q23.5 -37.5 23.5 -93.5q0 -56 -18.5 -96.5q-18.5 -40.5 -52 -67.5q-33.5 -27 -81 -40q-47.5 -13 -104.5 -13q-75 0 -132 14q-57 14 -84 28l44 117q11 -6 28.5 -13q17.5 -7 39.5 -13q22 -6 46.5 -10q24.5 -4 50.5 -4q61 0 93.5 20.5q32.5 20.5 32.5 62.5zt0 0zM230 870h96l127 -93v-39h-99l-57 41l-20 34l-21 -33l-62 -42h-97l0 40z" />
<glyph unicode="&#349;" horiz-adv-x="422" d="M264 138q0 20 -17 32q-17 12 -42 22q-25 10 -55 20.5q-30 10.5 -55 29q-25 18.5 -42 47q-17 28.5 -17 73.5q0 74 44 113q44 39 127 39q57 0 103 -12q46 -12 72 -27l-29 -94q-23 9 -58 19q-35 10 -71 10q-58 0 -58 -45q0 -18 17 -29q17 -11 42 -20.5q25 -9.5 55 -20.5q30 -11 55 -28.5q25 -17.5 42 -45.5q17 -28 17 -72q0 -76 -48.5 -119.5q-48.5 -43.5 -145.5 -43.5q-53 0 -99.5 13.5q-46.5 13.5 -75.5 31.5l36 97q23 -13 61 -25.5q38 -12.5 78 -12.5q29 0 46.5 11q17.5 11 17.5 37zt0 0zM176 732h86l111 -182h-103l-39 66l-17 49l-17 -49l-45 -66l-99 0z" />
<glyph unicode="&#350;" horiz-adv-x="530" d="M362 188q0 32 -23.5 52q-23.5 20 -59 36.5q-35.5 16.5 -77 34q-41.5 17.5 -77 43q-35.5 25.5 -59 63.5q-23.5 38 -23.5 97q0 51 17 88.5q17 37.5 48.5 62.5q31.5 25 74.5 37q43 12 96 12q61 0 115 -10.5q54 -10.5 89 -30.5l-43 -115q-22 14 -66 25.5q-44 11.5 -95 11.5q-48 0 -73.5 -19q-25.5 -19 -25.5 -51q0 -30 23.5 -50q23.5 -20 59 -37q35.5 -17 77 -35q41.5 -18 77 -43.5q35.5 -25.5 59 -63q23.5 -37.5 23.5 -93.5q0 -95 -51.5 -147q-51.5 -52 -139.5 -65l-18 -34q41 -4 64.5 -21.5q23.5 -17.5 23.5 -53.5q0 -23 -11.5 -40q-11.5 -17 -31.5 -28.5q-20 -11.5 -47 -17.5q-27 -6 -58 -6q-31 0 -64 6l9 48q7 -1 13 -1q6 0 11 0q38 0 49 9q11 9 11 21q0 28 -86 32l48 81q-68 2 -118.5 15q-50.5 13 -75.5 27l44 117q11 -6 28.5 -13q17.5 -7 39.5 -13q22 -6 46.5 -10q24.5 -4 50.5 -4q61 0 93.5 20.5t32.5 62.5z" />
<glyph unicode="&#351;" horiz-adv-x="422" d="M264 138q0 20 -17 32q-17 12 -42 22q-25 10 -55 20.5q-30 10.5 -55 29q-25 18.5 -42 47q-17 28.5 -17 73.5q0 74 44 113q44 39 127 39q57 0 103 -12q46 -12 72 -27l-29 -94q-23 9 -58 19q-35 10 -71 10q-58 0 -58 -45q0 -18 17 -29q17 -11 42 -20.5q25 -9.5 55 -20.5q30 -11 55 -28.5q25 -17.5 42 -45.5q17 -28 17 -72q0 -64 -35 -105.5q-35 -41.5 -104 -52.5l-18 -34q41 -4 64.5 -21.5q23.5 -17.5 23.5 -53.5q0 -23 -11.5 -40q-11.5 -17 -31.5 -28.5q-20 -11.5 -47 -17.5q-27 -6 -58 -6q-31 0 -64 6l9 48q7 -1 13 -1q6 0 11 0q38 0 49 9q11 9 11 21q0 28 -86 32l49 83q-44 4 -82 15.5q-38 11.5 -62 27.5l36 97q23 -13 61 -25.5q38 -12.5 78 -12.5q29 0 46.5 11t17.5 37z" />
<glyph unicode="&#352;" horiz-adv-x="530" d="M362 188q0 32 -23.5 52q-23.5 20 -59 36.5q-35.5 16.5 -77 34q-41.5 17.5 -77 43q-35.5 25.5 -59 63.5q-23.5 38 -23.5 97q0 51 17 88.5q17 37.5 48.5 62.5q31.5 25 74.5 37q43 12 96 12q61 0 115 -10.5q54 -10.5 89 -30.5l-43 -115q-22 14 -66 25.5q-44 11.5 -95 11.5q-48 0 -73.5 -19q-25.5 -19 -25.5 -51q0 -30 23.5 -50q23.5 -20 59 -37q35.5 -17 77 -35q41.5 -18 77 -43.5q35.5 -25.5 59 -63q23.5 -37.5 23.5 -93.5q0 -56 -18.5 -96.5q-18.5 -40.5 -52 -67.5q-33.5 -27 -81 -40q-47.5 -13 -104.5 -13q-75 0 -132 14q-57 14 -84 28l44 117q11 -6 28.5 -13q17.5 -7 39.5 -13q22 -6 46.5 -10q24.5 -4 50.5 -4q61 0 93.5 20.5q32.5 20.5 32.5 62.5zt0 0zM328 737h-94l-127 94v39h105l53 -45l19 -30l21 29l56 46h100l0 -40z" />
</font>
</defs>
</svg>
