<?xml version="1.0" standalone="no"?>
<!DOCTYPE svg PUBLIC "-//W3C//DTD SVG 1.1//EN" "http://www.w3.org/Graphics/SVG/1.1/DTD/svg11.dtd" >
<svg xmlns="http://www.w3.org/2000/svg">
<metadata>
Generated by SVGconv.
Copyright   : Copyright  2009 ParaType Ltd. All rights reserved.
Designer    : A.Korolkova, O.Umpeleva, V.Yefimov
Foundry     : ParaType Ltd
Foundry URL : http://www.paratype.com
</metadata>
<defs>
<font id="PTSans-NarrowBold" horiz-adv-x="446" >
<font-face units-per-em="1000" ascent="1018" descent="276" />
<missing-glyph horiz-adv-x="750" />
<glyph unicode="&#13;" horiz-adv-x="205" />
<glyph unicode="&#32;" horiz-adv-x="205" />
<glyph unicode="&#33;" horiz-adv-x="251" d="M83 700h123v-329l-24 -163h-75l-24 163zM72 65q0 37 19.5 56q19.5 19 51.5 19q35 0 54 -19q19 -19 19 -56q0 -36 -19.5 -56q-19.5 -20 -53.5 -20q-33 0 -52 20t-19 56z" />
<glyph unicode="&#34;" horiz-adv-x="351" d="M73 700h103l-31 -216h-72zM207 700h103l-31 -216l-72 0z" />
<glyph unicode="&#35;" horiz-adv-x="478" d="M242 205h-69l-30 -154h-97l30 154h-61l21 95h58l22 110h-60l21 95h57l29 144h98l-29 -144h69l29 144h97l-29 -144h59l-22 -95h-55l-22 -110h58l-22 -95h-54l-30 -154h-98zM192 300h69l21 110l-69 0z" />
<glyph unicode="&#36;" horiz-adv-x="478" d="M194 -13q-48 2 -82 11.5q-34 9.5 -54 22.5l33 107q15 -11 41.5 -20q26.5 -9 61.5 -13l0 220q-26 15 -51 33q-25 18 -44.5 42.5q-19.5 24.5 -32 57q-12.5 32.5 -12.5 77.5q0 78 38 123.5q38 45.5 102 59.5l0 92h95v-88q35 -2 62 -9.5q27 -7.5 51 -19.5l-33 -104q-15 8 -35 14.5q-20 6.5 -45 9.5l0 -197q26 -16 51.5 -34.5q25.5 -18.5 46 -43.5q20.5 -25 33.5 -57q13 -32 13 -75q0 -86 -39 -136q-39 -50 -105 -66l0 -94h-95zM248 96q32 6 48 29.5q16 23.5 16 57.5q0 34 -18 56.5q-18 22.5 -46 41.5zM236 605q-36 -4 -49.5 -25.5q-13.5 -21.5 -13.5 -46.5q0 -31 18 -52.5q18 -21.5 45 -40.5z" />
<glyph unicode="&#37;" horiz-adv-x="720" d="M41 542q0 46 11 78q11 32 31 52.5q20 20.5 47.5 30q27.5 9.5 60.5 9.5q33 0 60.5 -8.5q27.5 -8.5 47.5 -28.5q20 -20 31.5 -52.5q11.5 -32.5 11.5 -80.5q0 -48 -11.5 -80.5q-11.5 -32.5 -31.5 -52.5q-20 -20 -47.5 -28.5q-27.5 -8.5 -60.5 -8.5q-33 0 -60.5 8.5q-27.5 8.5 -47.5 28.5q-20 20 -31 52.5q-11 32.5 -11 80.5zt0 0zM147 542q0 -48 10.5 -67.5q10.5 -19.5 33.5 -19.5q12 0 20.5 3.5q8.5 3.5 14 13.5q5.5 10 8 27q2.5 17 2.5 43q0 51 -11 69q-11 18 -34 18q-23 0 -33.5 -18q-10.5 -18 -10.5 -69zt0 0zM389 170q0 46 11 78q11 32 31 52.5q20 20.5 47.5 30q27.5 9.5 60.5 9.5q33 0 60.5 -8.5q27.5 -8.5 47.5 -28.5q20 -20 31.5 -52.5q11.5 -32.5 11.5 -80.5q0 -48 -11.5 -80.5q-11.5 -32.5 -31.5 -52.5q-20 -20 -47.5 -28.5q-27.5 -8.5 -60.5 -8.5q-33 0 -60.5 8.5q-27.5 8.5 -47.5 28.5q-20 20 -31 52.5q-11 32.5 -11 80.5zt0 0zM495 170q0 -48 10.5 -67.5q10.5 -19.5 33.5 -19.5q12 0 20.5 3.5q8.5 3.5 14 13.5q5.5 10 8 27q2.5 17 2.5 43q0 51 -11 69q-11 18 -34 18q-23 0 -33.5 -18q-10.5 -18 -10.5 -69zt0 0zM575 714l70 -58l-494 -670l-71 59z" />
<glyph unicode="&#38;" horiz-adv-x="671" d="M70 194q0 38 10.5 72q10.5 34 29.5 64q19 30 44.5 55.5q25.5 25.5 54.5 45.5q-21 33 -34.5 68q-13.5 35 -13.5 73q0 25 8 50.5q8 25.5 26 46q18 20.5 46.5 33q28.5 12.5 69.5 12.5q39 0 67 -10.5q28 -10.5 45.5 -28q17.5 -17.5 25.5 -40.5q8 -23 8 -48q0 -42 -25 -86.5q-25 -44.5 -82 -86.5q25 -47 53.5 -94.5q28.5 -47.5 63.5 -91.5q19 25 32 59.5q13 34.5 24 71.5l89 -41q-5 -18 -14 -41q-9 -23 -20 -45.5q-11 -22.5 -22 -43q-11 -20.5 -21 -34.5q25 -29 46.5 -46.5q21.5 -17.5 42.5 -30.5l-61 -91q-27 13 -52.5 34q-25.5 21 -49.5 49q-30 -34 -73.5 -58.5q-43.5 -24.5 -108.5 -24.5q-45 0 -83.5 13.5q-38.5 13.5 -66.5 40q-28 26.5 -43.5 65.5q-15.5 39 -15.5 89zt0 0zM392 148q-40 53 -72.5 103.5q-32.5 50.5 -55.5 98.5q-35 -35 -55 -68.5q-20 -33.5 -20 -78.5q0 -51 28.5 -79.5q28.5 -28.5 74.5 -28.5q32 0 59 16.5q27 16.5 41 36.5zt0 0zM280 566q0 -44 29 -90q29 25 42 47.5q13 22.5 13 42.5q0 23 -10.5 37.5q-10.5 14.5 -32.5 14.5q-20 0 -30.5 -14.5t-10.5 -37.5z" />
<glyph unicode="&#39;" horiz-adv-x="217" d="M73 700h103l-31 -216l-72 0z" />
<glyph unicode="&#40;" horiz-adv-x="278" d="M186 -220q-38 48 -64 105.5q-26 57.5 -42.5 118q-16.5 60.5 -24 122q-7.5 61.5 -7.5 117.5q0 55 7.5 116q7.5 61 24 122.5q16.5 61.5 43 120.5q26.5 59 65.5 110l80 -45q-27 -47 -46 -99.5q-19 -52.5 -31.5 -107.5q-12.5 -55 -18 -110.5q-5.5 -55.5 -5.5 -106.5q0 -48 6 -103q6 -55 18 -110.5q12 -55.5 31.5 -107.5q19.5 -52 46.5 -94z" />
<glyph unicode="&#41;" horiz-adv-x="278" d="M92 712q38 -48 64 -105.5q26 -57.5 42.5 -118q16.5 -60.5 24 -122q7.5 -61.5 7.5 -117.5q0 -55 -7.5 -116q-7.5 -61 -24 -122.5q-16.5 -61.5 -43 -120.5q-26.5 -59 -65.5 -110l-81 46q30 50 49.5 103q19.5 53 31 107q11.5 54 16.5 108q5 54 5 105q0 48 -6 103.5q-6 55.5 -19 111q-13 55.5 -32 107.5q-19 52 -45 95z" />
<glyph unicode="&#42;" horiz-adv-x="323" d="M123 724l24 -43l13 -56l11 52l26 47l59 -34l-27 -49l-42 -40l55 15h52v-70h-50l-52 16l45 -45l22 -40l-60 -35l-24 43l-16 61l-10 -55l-26 -47l-60 35l27 48l39 34l-47 -15h-53v71h54l50 -16l-45 41l-25 47z" />
<glyph unicode="&#43;" horiz-adv-x="444" d="M38 393h129v146h110v-146h129v-106h-129v-147h-110v147l-129 0z" />
<glyph unicode="&#44;" horiz-adv-x="216" d="M33 65q0 34 20 53.5q20 19.5 50 19.5q38 0 58.5 -27q20.5 -27 20.5 -75q0 -44 -12.5 -76q-12.5 -32 -30.5 -53.5q-18 -21.5 -38.5 -34.5q-20.5 -13 -35.5 -19l-37 48q23 12 41 38.5q18 26.5 20 53.5q-21 -1 -38.5 16.5t-17.5 55.5z" />
<glyph unicode="&#45;" horiz-adv-x="298" d="M45 344h208v-114l-208 0z" />
<glyph unicode="&#46;" horiz-adv-x="212" d="M34 65q0 37 19.5 56q19.5 19 51.5 19q35 0 54 -19q19 -19 19 -56q0 -36 -19.5 -56q-19.5 -20 -53.5 -20q-33 0 -52 20t-19 56z" />
<glyph unicode="&#47;" horiz-adv-x="349" d="M276 712l91 -35l-293 -817l-92 35z" />
<glyph unicode="&#48;" horiz-adv-x="478" d="M35 351q0 98 13.5 167q13.5 69 39.5 112.5q26 43.5 64 63.5q38 20 87 20q52 0 90.5 -20q38.5 -20 64 -63.5q25.5 -43.5 38 -112.5q12.5 -69 12.5 -167q0 -99 -14 -168.5q-14 -69.5 -40 -113q-26 -43.5 -64 -63.5q-38 -20 -87 -20q-52 0 -90.5 20.5q-38.5 20.5 -63.5 65q-25 44.5 -37.5 113.5q-12.5 69 -12.5 166zt0 0zM154 351q0 -134 20 -196.5q20 -62.5 66 -62.5q22 0 38.5 14q16.5 14 26.5 45q10 31 15 80q5 49 5 120q0 133 -19.5 195q-19.5 62 -66.5 62q-23 0 -39 -14q-16 -14 -26 -45q-10 -31 -15 -80t-5 -118z" />
<glyph unicode="&#49;" horiz-adv-x="478" d="M87 106h114v393l13 68l-41 -59l-66 -51l-55 67l193 188h70v-606h112v-106l-340 0z" />
<glyph unicode="&#50;" horiz-adv-x="478" d="M402 532q0 -52 -15 -106.5q-15 -54.5 -38.5 -106.5q-23.5 -52 -51.5 -99q-28 -47 -55 -83l-44 -41v-5l60 15h155v-106h-351v69q21 26 45.5 59.5q24.5 33.5 49 71q24.5 37.5 47.5 78q23 40.5 40.5 81q17.5 40.5 28 79.5q10.5 39 8.5 73q2 42 -18 68q-20 26 -63 26q-25 0 -51 -11.5q-26 -11.5 -44 -27.5l-46 87q33 28 75 44.5q42 16.5 99 16.5q36 0 67 -11.5q31 -11.5 53.5 -34.5q22.5 -23 35.5 -57t13 -79z" />
<glyph unicode="&#51;" horiz-adv-x="478" d="M200 92q49 0 74.5 33q25.5 33 25.5 84q0 113 -112 113h-59v68l99 168l48 45l-66 -9h-137v106h320v-71l-116 -189l-37 -27v-5l37 6q28 -2 54 -15q26 -13 45.5 -37q19.5 -24 31 -60q11.5 -36 11.5 -85q0 -59 -16.5 -102q-16.5 -43 -45 -72q-28.5 -29 -67 -43q-38.5 -14 -82.5 -14q-37 0 -78 8q-41 8 -65 23l32 100q21 -11 46 -18t57 -7z" />
<glyph unicode="&#52;" horiz-adv-x="478" d="M465 195h-88v-195h-113v195h-247v74l256 436h104v-408h88zM264 452l11 90h-4l-30 -81l-79 -134l-40 -38l51 8l91 0z" />
<glyph unicode="&#53;" horiz-adv-x="478" d="M183 95q54 0 82 35q28 35 28 90q0 63 -33 91q-33 28 -95 28l-65 -4v365h291v-116h-189v-143l33 4q81 -3 129 -60q48 -57 48 -160q0 -59 -17 -104q-17 -45 -46.5 -75q-29.5 -30 -70.5 -45q-41 -15 -89 -15q-36 0 -72.5 7.5q-36.5 7.5 -59.5 19.5l31 101q37 -19 95 -19z" />
<glyph unicode="&#54;" horiz-adv-x="478" d="M438 217q0 -53 -14.5 -96q-14.5 -43 -40 -73q-25.5 -30 -61 -46q-35.5 -16 -77.5 -16q-44 0 -81 15.5q-37 15.5 -64 47.5q-27 32 -42 82.5q-15 50.5 -15 119.5q0 102 24.5 182.5q24.5 80.5 66 138.5q41.5 58 95 93.5q53.5 35.5 112.5 48.5l30 -97q-39 -10 -73 -32q-34 -22 -61 -53q-27 -31 -45.5 -70.5q-18.5 -39.5 -27.5 -83.5q17 24 43 39q26 15 64 15q36 0 66.5 -13q30.5 -13 53 -40q22.5 -27 35 -67.5q12.5 -40.5 12.5 -94.5zt0 0zM323 210q0 61 -20.5 88.5q-20.5 27.5 -62.5 27.5q-30 0 -51 -17q-21 -17 -30 -40q-1 -11 -1 -22.5q0 -11.5 0 -22.5q0 -26 5 -49.5q5 -23.5 15.5 -42q10.5 -18.5 26 -29.5q15.5 -11 37.5 -11q36 0 58.5 30.5t22.5 87.5z" />
<glyph unicode="&#55;" horiz-adv-x="478" d="M88 0l189 547l36 49l-50 -10h-211v114h379v-38l-227 -662z" />
<glyph unicode="&#56;" horiz-adv-x="478" d="M50 168q0 36 8 64.5q8 28.5 22 51q14 22.5 31.5 40.5q17.5 18 37.5 33q-39 31 -61.5 71.5q-22.5 40.5 -22.5 100.5q0 85 47.5 135q47.5 50 130.5 50q76 0 123 -44q47 -44 47 -125q0 -59 -22 -100q-22 -41 -63 -76q50 -35 75 -79q25 -44 25 -111q0 -45 -14.5 -81q-14.5 -36 -40 -61q-25.5 -25 -60.5 -38q-35 -13 -76 -13q-42 0 -76 12.5q-34 12.5 -59 35.5q-25 23 -38.5 57q-13.5 34 -13.5 77zt0 0zM313 179q0 25 -8 45q-8 20 -21.5 35.5q-13.5 15.5 -30 28.5q-16.5 13 -32.5 25q-35 -27 -48.5 -58.5q-13.5 -31.5 -13.5 -63.5q0 -42 21 -70.5q21 -28.5 59 -28.5q34 0 54 21.5q20 21.5 20 65.5zt0 0zM179 527q0 -23 6.5 -40.5q6.5 -17.5 17.5 -31.5q11 -14 25.5 -25.5q14.5 -11.5 30.5 -21.5q23 27 34.5 53.5q11.5 26.5 11.5 60.5q0 41 -18.5 63.5q-18.5 22.5 -44.5 22.5q-33 0 -48 -24.5t-15 -56.5z" />
<glyph unicode="&#57;" horiz-adv-x="478" d="M37 481q0 106 50.5 169.5q50.5 63.5 145.5 63.5q93 0 148.5 -66q55.5 -66 55.5 -198q0 -116 -25 -200.5q-25 -84.5 -67 -140.5q-42 -56 -97 -86q-55 -30 -114 -37l-28 100q90 18 140 78.5q50 60.5 64 146.5q-19 -25 -41 -35q-22 -10 -57 -10q-31 0 -62.5 12.5q-31.5 12.5 -56.5 39q-25 26.5 -40.5 67q-15.5 40.5 -15.5 96.5zt0 0zM152 488q0 -57 24.5 -86.5q24.5 -29.5 62.5 -29.5q29 0 49 10.5q20 10.5 31 29.5q2 11 2.5 23q0.5 12 0.5 23q0 31 -5 58.5q-5 27.5 -16 47.5q-11 20 -28 32q-17 12 -41 12q-38 0 -59 -32t-21 -88z" />
<glyph unicode="&#58;" horiz-adv-x="251" d="M77 427q0 37 19.5 56q19.5 19 51.5 19q35 0 54 -19q19 -19 19 -56q0 -36 -19.5 -56q-19.5 -20 -53.5 -20q-33 0 -52 20q-19 20 -19 56zt0 0zM77 65q0 37 19.5 56q19.5 19 51.5 19q35 0 54 -19q19 -19 19 -56q0 -36 -19.5 -56q-19.5 -20 -53.5 -20q-33 0 -52 20t-19 56z" />
<glyph unicode="&#59;" horiz-adv-x="251" d="M72 65q0 34 20 53.5q20 19.5 50 19.5q38 0 58.5 -27q20.5 -27 20.5 -75q0 -44 -12.5 -76q-12.5 -32 -30.5 -53.5q-18 -21.5 -38.5 -34.5q-20.5 -13 -35.5 -19l-37 48q23 12 41 38.5q18 26.5 20 53.5q-21 -1 -38.5 16.5q-17.5 17.5 -17.5 55.5zt0 0zM73 427q0 37 19.5 56q19.5 19 51.5 19q35 0 54 -19q19 -19 19 -56q0 -36 -19.5 -56q-19.5 -20 -53.5 -20q-33 0 -52 20t-19 56z" />
<glyph unicode="&#60;" horiz-adv-x="444" d="M35 285v70l311 222l60 -81l-186 -139l-75 -35l74 -31l191 -137l-60 -81z" />
<glyph unicode="&#61;" horiz-adv-x="444" d="M38 489h368v-106h-368zM38 297h368v-106l-368 0z" />
<glyph unicode="&#62;" horiz-adv-x="444" d="M409 365v-70l-309 -220l-62 80l187 138l74 36l-74 30l-191 138l62 79z" />
<glyph unicode="&#63;" horiz-adv-x="382" d="M113 208q-4 46 4 80.5q8 34.5 22 61q14 26.5 32 47.5q18 21 34 41.5q16 20.5 26.5 43q10.5 22.5 10.5 50.5q0 35 -16.5 55.5q-16.5 20.5 -54.5 20.5q-26 0 -55 -10.5q-29 -10.5 -50 -28.5l-47 90q31 23 73 39q42 16 102 16q80 0 125.5 -43.5q45.5 -43.5 45.5 -122.5q0 -47 -11 -79.5q-11 -32.5 -28 -57q-17 -24.5 -36.5 -44.5q-19.5 -20 -36 -42q-16.5 -22 -28 -50q-11.5 -28 -11.5 -67zM97 65q0 37 19.5 56q19.5 19 51.5 19q35 0 54 -19q19 -19 19 -56q0 -36 -19.5 -56q-19.5 -20 -53.5 -20q-33 0 -52 20t-19 56z" />
<glyph unicode="&#64;" horiz-adv-x="881" d="M558 484h66l-39 -273q-12 -91 29 -91q20 0 39.5 12q19.5 12 35 37q15.5 25 25 64q9.5 39 9.5 93q0 69 -19.5 118.5q-19.5 49.5 -54.5 81q-35 31.5 -83 46.5q-48 15 -105 15q-64 0 -119.5 -25.5q-55.5 -25.5 -96 -71.5q-40.5 -46 -64 -110q-23.5 -64 -23.5 -142q0 -153 76 -233q76 -80 213 -80q26 0 57.5 7q31.5 7 56.5 20l29 -87q-32 -17 -70 -25.5q-38 -8.5 -86 -8.5q-79 0 -147.5 24q-68.5 24 -119.5 73.5q-51 49.5 -80.5 126q-29.5 76.5 -29.5 181.5q0 105 33.5 188q33.5 83 89.5 140q56 57 129 87q73 30 153 30q76 0 142.5 -22.5q66.5 -22.5 115 -67q48.5 -44.5 76.5 -111q28 -66.5 28 -154.5q0 -66 -19.5 -122.5q-19.5 -56.5 -52.5 -97q-33 -40.5 -77.5 -63.5q-44.5 -23 -94.5 -23q-41 0 -69.5 21q-28.5 21 -26.5 73l-3 0q-23 -38 -55.5 -66q-32.5 -28 -79.5 -28q-43 0 -73 38q-30 38 -30 106q0 67 16.5 126q16.5 59 44.5 103.5q28 44.5 65 70.5q37 26 79 26q28 0 48 -10q20 -10 37 -27zM505 369q-18 21 -47 21q-23 0 -42 -16.5q-19 -16.5 -33 -44q-14 -27.5 -22 -63q-8 -35.5 -8 -73.5q0 -35 11.5 -54q11.5 -19 35.5 -19q22 0 44.5 24.5q22.5 24.5 37.5 54.5z" />
<glyph unicode="&#65;" horiz-adv-x="501" d="M328 158h-165l-41 -158h-125l203 705h99l204 -705h-132zM190 262h116l-40 163l-16 110h-4l-17 -111z" />
<glyph unicode="&#66;" horiz-adv-x="490" d="M445 538q0 -26 -5.5 -51.5q-5.5 -25.5 -17.5 -48q-12 -22.5 -31.5 -39.5q-19.5 -17 -46.5 -26l0 -6q24 -6 45.5 -18q21.5 -12 37.5 -32.5q16 -20.5 25.5 -50q9.5 -29.5 9.5 -69.5q0 -54 -18.5 -93.5q-18.5 -39.5 -50 -64.5q-31.5 -25 -73.5 -37q-42 -12 -89 -12q-14 0 -36 0q-22 0 -47.5 1.5q-25.5 1.5 -52.5 4.5q-27 3 -50 9l0 690q33 6 81.5 10.5q48.5 4.5 96.5 4.5q44 0 84.5 -7q40.5 -7 71 -26q30.5 -19 48.5 -52.5q18 -33.5 18 -86.5zt0 0zM234 99q42 0 69 27q27 27 27 79q0 33 -9 52.5q-9 19.5 -24 30q-15 10.5 -34.5 13.5q-19.5 3 -40.5 3h-51v-199q8 -3 27.5 -4.5q19.5 -1.5 35.5 -1.5zt0 0zM200 403q11 0 25.5 1.5q14.5 1.5 23.5 3.5q29 11 49.5 36q20.5 25 20.5 65q0 26 -7 44q-7 18 -19 28.5q-12 10.5 -28.5 15q-16.5 4.5 -35.5 4.5q-41 0 -58 -4l0 -194z" />
<glyph unicode="&#67;" horiz-adv-x="457" d="M442 28q-26 -22 -69.5 -32q-43.5 -10 -86.5 -10q-54 0 -100.5 18.5q-46.5 18.5 -81.5 61.5q-35 43 -55 113q-20 70 -20 172q0 106 22.5 176q22.5 70 59 111.5q36.5 41.5 83.5 58.5q47 17 95 17q49 0 85.5 -8q36.5 -8 59.5 -18l-25 -111q-19 10 -44.5 15.5q-25.5 5.5 -60.5 5.5q-69 0 -106 -60q-37 -60 -37 -188q0 -55 8.5 -100.5q8.5 -45.5 27 -78.5q18.5 -33 47 -51q28.5 -18 68.5 -18q35 0 60 9.5q25 9.5 45 22.5z" />
<glyph unicode="&#68;" horiz-adv-x="535" d="M45 700q18 3 40.5 4.5q22.5 1.5 46 3q23.5 1.5 45.5 2q22 0.5 39 0.5q83 0 138.5 -25.5q55.5 -25.5 89 -72q33.5 -46.5 47.5 -111.5q14 -65 14 -145q0 -73 -13.5 -139.5q-13.5 -66.5 -47.5 -117q-34 -50.5 -92 -80.5q-58 -30 -146 -30q-13 0 -35 1q-22 1 -46 2.5q-24 1.5 -46 3q-22 1.5 -34 3.5zM229 594q-16 0 -32.5 -0.5q-16.5 -0.5 -25.5 -2.5l0 -482q3 -1 10.5 -1.5q7.5 -0.5 16 -1q8.5 -0.5 16 -1q7.5 -0.5 10.5 -0.5q45 0 74 21q29 21 45.5 56q16.5 35 23 80.5q6.5 45.5 6.5 95.5q0 46 -5.5 89q-5.5 43 -21 75.5q-15.5 32.5 -44 52t-73.5 19.5z" />
<glyph unicode="&#69;" horiz-adv-x="430" d="M45 700h350v-116h-224v-172h203v-116h-203v-180h228v-116l-354 0z" />
<glyph unicode="&#70;" horiz-adv-x="419" d="M45 700h350v-116h-224v-182h206v-116h-206v-286l-126 0z" />
<glyph unicode="&#71;" horiz-adv-x="502" d="M257 362h216v-310q-37 -35 -86.5 -50.5q-49.5 -15.5 -98.5 -15.5q-59 0 -107 21q-48 21 -81.5 65.5q-33.5 44.5 -52 113q-18.5 68.5 -18.5 164.5q0 100 22 169q22 69 58.5 112.5q36.5 43.5 85 63q48.5 19.5 102.5 19.5q48 0 87.5 -8.5q39.5 -8.5 65.5 -19.5v-109q-46 9 -72.5 15q-26.5 6 -64.5 6q-35 0 -63.5 -14q-28.5 -14 -48 -44q-19.5 -30 -30 -77.5q-10.5 -47.5 -10.5 -113.5q0 -127 38.5 -187q38.5 -60 101.5 -60q20 0 38.5 6q18.5 6 32.5 19l0 143l-115 16z" />
<glyph unicode="&#72;" horiz-adv-x="533" d="M362 296h-191v-296h-126v700h126v-288h191v288h126v-700l-126 0z" />
<glyph unicode="&#73;" horiz-adv-x="238" d="M56 700h126v-700l-126 0z" />
<glyph unicode="&#74;" horiz-adv-x="289" d="M113 700h126v-509q0 -46 -7.5 -83.5q-7.5 -37.5 -24.5 -64q-17 -26.5 -45 -41q-28 -14.5 -70 -14.5q-29 0 -57.5 6q-28.5 6 -51.5 17l29 106q21 -13 49 -13q35 0 43.5 29.5q8.5 29.5 8.5 84.5z" />
<glyph unicode="&#75;" horiz-adv-x="519" d="M198 300h-27v-300h-126v700h126v-311l25 12l147 299h142l-160 -295l-47 -37l48 -38l185 -330l-154 0z" />
<glyph unicode="&#76;" horiz-adv-x="424" d="M417 0h-372v700h126v-584l246 0z" />
<glyph unicode="&#77;" horiz-adv-x="664" d="M493 361l14 134h-5l-37 -120l-114 -246h-42l-121 247l-37 121h-6l19 -135v-362h-119v700h121l146 -303l24 -87h4l23 89l137 301h119v-700l-126 0z" />
<glyph unicode="&#78;" horiz-adv-x="540" d="M199 344l-46 123h-5l16 -121v-346h-119v705h97l201 -352l43 -121h6l-16 119v349h119v-705l-97 0z" />
<glyph unicode="&#79;" horiz-adv-x="553" d="M29 350q0 178 61 271q61 93 186 93q65 0 112 -25.5q47 -25.5 77 -73q30 -47.5 44.5 -115q14.5 -67.5 14.5 -150.5q0 -178 -62.5 -271q-62.5 -93 -185.5 -93q-66 0 -112.5 25.5q-46.5 25.5 -76.5 73q-30 47.5 -44 115q-14 67.5 -14 150.5zt0 0zM161 350q0 -53 6 -98.5q6 -45.5 20 -78.5q14 -33 35.5 -52q21.5 -19 53.5 -19q58 0 87 59q29 59 29 189q0 51 -6 96.5q-6 45.5 -19.5 79q-13.5 33.5 -35.5 53q-22 19.5 -55 19.5q-115 0 -115 -248z" />
<glyph unicode="&#80;" horiz-adv-x="477" d="M45 693q36 8 79 12.5q43 4.5 86 4.5q46 0 90.5 -8.5q44.5 -8.5 79.5 -33.5q35 -25 57 -70.5q22 -45.5 22 -118.5q0 -66 -18.5 -112q-18.5 -46 -49.5 -75q-31 -29 -71.5 -42q-40.5 -13 -83.5 -13q-4 0 -13 0q-9 0 -19 0.5q-10 0.5 -19.5 1.5q-9.5 1 -13.5 2l0 -241h-126zM171 354q6 -2 22.5 -3.5q16.5 -1.5 22.5 -1.5q22 0 42 6q20 6 35.5 20.5q15.5 14.5 24.5 40q9 25.5 9 64.5q0 33 -8.5 56q-8.5 23 -23 36.5q-14.5 13.5 -33.5 19.5q-19 6 -40 6q-31 0 -51 -5z" />
<glyph unicode="&#81;" horiz-adv-x="553" d="M579 -196q-20 -7 -40.5 -10q-20.5 -3 -40.5 -3q-42 0 -81.5 10q-39.5 10 -76.5 22.5q-37 12.5 -71.5 22.5q-34.5 10 -65.5 10q-10 0 -19.5 -1q-9.5 -1 -18.5 -4l0 112q24 6 48 6q34 0 68.5 -10q34.5 -10 70 -21.5q35.5 -11.5 73 -21.5q37.5 -10 78.5 -10q18 0 37 2.5q19 2.5 39 8.5zM29 350q0 178 61 271q61 93 186 93q65 0 112 -25.5q47 -25.5 77 -73q30 -47.5 44.5 -115q14.5 -67.5 14.5 -150.5q0 -178 -62.5 -271q-62.5 -93 -185.5 -93q-66 0 -112.5 25.5q-46.5 25.5 -76.5 73q-30 47.5 -44 115q-14 67.5 -14 150.5zt0 0zM161 350q0 -53 6 -98.5q6 -45.5 20 -78.5q14 -33 35.5 -52q21.5 -19 53.5 -19q58 0 87 59q29 59 29 189q0 51 -6 96.5q-6 45.5 -19.5 79q-13.5 33.5 -35.5 53q-22 19.5 -55 19.5q-115 0 -115 -248z" />
<glyph unicode="&#82;" horiz-adv-x="503" d="M45 693q41 9 88 13q47 4 81 4q43 0 84 -8.5q41 -8.5 72.5 -31q31.5 -22.5 51 -61q19.5 -38.5 19.5 -97.5q0 -85 -31.5 -138.5q-31.5 -53.5 -86.5 -73.5l40 -32l129 -268h-145l-122 276l-54 13v-289h-126zM171 375h43q47 0 71 28.5q24 28.5 24 88.5q0 45 -20 73.5q-20 28.5 -63 28.5q-16 0 -31 -1q-15 -1 -24 -4z" />
<glyph unicode="&#83;" horiz-adv-x="439" d="M290 180q0 32 -19 54.5q-19 22.5 -47.5 42.5q-28.5 20 -62 41q-33.5 21 -62 49q-28.5 28 -47.5 66q-19 38 -19 93q0 51 15.5 86.5q15.5 35.5 42.5 58q27 22.5 64 33q37 10.5 79 10.5q51 0 95 -10q44 -10 73 -27l-39 -111q-17 12 -50.5 22q-33.5 10 -72.5 10q-39 0 -60 -16q-21 -16 -21 -47q0 -28 19 -49.5q19 -21.5 47.5 -41.5q28.5 -20 62 -41.5q33.5 -21.5 62 -50q28.5 -28.5 47.5 -67q19 -38.5 19 -91.5q0 -53 -15.5 -92q-15.5 -39 -44 -64.5q-28.5 -25.5 -68.5 -38.5q-40 -13 -89 -13q-62 0 -108.5 12q-46.5 12 -71.5 27l41 113q20 -12 55 -24q35 -12 75 -12q100 0 100 78z" />
<glyph unicode="&#84;" horiz-adv-x="474" d="M466 584h-166v-584h-126v584h-166v116l458 0z" />
<glyph unicode="&#85;" horiz-adv-x="515" d="M354 700h119v-454q0 -136 -55.5 -197q-55.5 -61 -153.5 -61q-115 0 -168.5 59.5q-53.5 59.5 -53.5 181.5v471h126v-449q0 -82 22 -114.5q22 -32.5 73 -32.5q49 0 70 34.5q21 34.5 21 112.5z" />
<glyph unicode="&#86;" horiz-adv-x="503" d="M243 289l14 -120h4l16 121l102 410h133l-212 -705h-96l-214 705l149 0z" />
<glyph unicode="&#87;" horiz-adv-x="717" d="M205 315l10 -126h4l11 128l94 383h88l91 -385l11 -126h4l11 128l62 383h128l-157 -705h-89l-98 386l-13 109h-5l-12 -110l-98 -385h-93l-156 705l139 0z" />
<glyph unicode="&#88;" horiz-adv-x="528" d="M177 356l-155 344h152l81 -200l19 -76l18 76l85 200h136l-160 -337l168 -363h-147l-94 215l-21 78l-20 -78l-94 -215l-139 0z" />
<glyph unicode="&#89;" horiz-adv-x="495" d="M184 260l-188 440h150l97 -265l10 -76h5l11 78l95 263h135l-189 -439v-261l-126 0z" />
<glyph unicode="&#90;" horiz-adv-x="445" d="M21 116l234 427l42 41h-276v116h403v-116l-235 -430l-41 -38h276v-116l-403 0z" />
<glyph unicode="&#91;" horiz-adv-x="276" d="M45 700h208v-103h-93v-724h93v-103l-208 0z" />
<glyph unicode="&#92;" horiz-adv-x="362" d="M373 -103l-93 -37l-298 816l94 35z" />
<glyph unicode="&#93;" horiz-adv-x="276" d="M231 -230h-208v103h93v724h-93v103l208 0z" />
<glyph unicode="&#94;" horiz-adv-x="428" d="M181 705h68l155 -292h-119l-56 122l-17 73l-21 -74l-59 -121l-114 0z" />
<glyph unicode="&#95;" horiz-adv-x="374" d="M0 -122h374v-102l-374 0z" />
<glyph unicode="&#96;" horiz-adv-x="290" d="M230 566h-66l-104 124v30l121 0z" />
<glyph unicode="&#97;" horiz-adv-x="413" d="M44 470q30 18 75 29q45 11 102 11q85 0 118.5 -44q33.5 -44 33.5 -125q0 -47 -2.5 -92.5q-2.5 -45.5 -3.5 -89q-1 -43.5 1.5 -84q2.5 -40.5 13.5 -76.5l-97 0l-19 61h-4q-16 -29 -45 -48q-29 -19 -73 -19q-59 0 -93 39.5q-34 39.5 -34 105.5q0 90 64 128q64 38 173 32q5 58 -7.5 84q-12.5 26 -53.5 26q-30 0 -62 -7q-32 -7 -57 -20zM187 95q27 0 44 13.5q17 13.5 25 29.5l0 83q-23 3 -44 1q-21 -2 -37 -9q-16 -7 -25.5 -20.5q-9.5 -13.5 -9.5 -34.5q0 -31 12.5 -47t34.5 -16z" />
<glyph unicode="&#98;" horiz-adv-x="443" d="M43 700h119v-232h3q36 44 103 44q71 0 110.5 -59q39.5 -59 39.5 -190q0 -142 -56 -208.5q-56 -66.5 -153 -66.5q-53 0 -97.5 10q-44.5 10 -68.5 22zM162 108q21 -11 55 -11q38 0 58 36.5q20 36.5 20 122.5q0 76 -16 111.5q-16 35.5 -50 35.5q-50 0 -67 -52z" />
<glyph unicode="&#99;" horiz-adv-x="350" d="M338 27q-25 -20 -60 -30q-35 -10 -70 -10q-51 0 -85.5 18.5q-34.5 18.5 -56.5 53q-22 34.5 -31.5 83q-9.5 48.5 -9.5 108.5q0 131 47 197q47 66 138 66q45 0 73.5 -8q28.5 -8 50.5 -20l-28 -99q-18 9 -34.5 13.5q-16.5 4.5 -39.5 4.5q-42 0 -63 -36.5q-21 -36.5 -21 -117.5q0 -68 21.5 -111q21.5 -43 68.5 -43q25 0 42.5 6.5q17.5 6.5 32.5 16.5z" />
<glyph unicode="&#100;" horiz-adv-x="445" d="M402 176q0 -42 1 -84q1 -42 8 -93l-84 0l-16 58h-4q-34 -70 -119 -70q-76 0 -119.5 60q-43.5 60 -43.5 195q0 132 47 200.5q47 68.5 140 68.5q24 0 40 -3q16 -3 31 -10l0 202h119zM216 96q27 0 43 13.5q16 13.5 24 39.5l0 236q-10 9 -22.5 13q-12.5 4 -32.5 4q-40 0 -60 -36q-20 -36 -20 -128q0 -69 16.5 -105.5t51.5 -36.5z" />
<glyph unicode="&#101;" horiz-adv-x="428" d="M381 37q-25 -22 -68 -36q-43 -14 -90 -14q-52 0 -89.5 18q-37.5 18 -61.5 52q-24 34 -35.5 82.5q-11.5 48.5 -11.5 110.5q0 135 53.5 199.5q53.5 64.5 148.5 64.5q32 0 62 -9.5q30 -9.5 53.5 -32q23.5 -22.5 38 -60q14.5 -37.5 14.5 -94.5q0 -22 -2.5 -47q-2.5 -25 -7.5 -54l-243 0q2 -62 26 -95q24 -33 77 -33q32 0 58.5 10q26.5 10 40.5 21zM225 412q-38 0 -57 -30.5q-19 -30.5 -22 -85.5l138 0q3 57 -12 86.5t-47 29.5z" />
<glyph unicode="&#102;" horiz-adv-x="267" d="M8 500h54v28q0 95 35.5 137.5q35.5 42.5 101.5 42.5q66 0 110 -18l-22 -101q-18 7 -32 8.5q-14 1.5 -29 1.5q-29 0 -37 -22.5q-8 -22.5 -8 -76.5l85 0v-106h-85v-394h-119v394l-54 0z" />
<glyph unicode="&#103;" horiz-adv-x="443" d="M401 0q0 -109 -50 -160.5q-50 -51.5 -139 -51.5q-62 0 -97 9.5q-35 9.5 -54 20.5l25 101q22 -9 47.5 -17q25.5 -8 60.5 -8q51 0 70.5 27.5q19.5 27.5 19.5 83.5v27h-3q-14 -20 -37.5 -30q-23.5 -10 -60.5 -10q-79 0 -118.5 59.5q-39.5 59.5 -39.5 188.5q0 139 54.5 205q54.5 66 155.5 66q54 0 97 -8.5q43 -8.5 69 -20.5zM216 94q27 0 42.5 13q15.5 13 23.5 37l0 250q-11 5 -24.5 8q-13.5 3 -31.5 3q-37 0 -57.5 -36q-20.5 -36 -20.5 -124q0 -151 68 -151z" />
<glyph unicode="&#104;" horiz-adv-x="449" d="M291 0v302q0 54 -12.5 78q-12.5 24 -45.5 24q-24 0 -44 -17q-20 -17 -27 -43l0 -344h-119v700h119v-245h3q20 26 48.5 42q28.5 16 71.5 16q31 0 54 -9q23 -9 39 -30q16 -21 24 -56.5q8 -35.5 8 -89.5l0 -328z" />
<glyph unicode="&#105;" horiz-adv-x="225" d="M53 500h119v-500h-119zM38 641q0 30 19 49.5q19 19.5 54 19.5q35 0 56 -19q21 -19 21 -50q0 -31 -21 -49q-21 -18 -56 -18q-35 0 -54 18.5t-19 48.5z" />
<glyph unicode="&#106;" horiz-adv-x="225" d="M54 500h119v-521q0 -91 -31.5 -139q-31.5 -48 -100.5 -48q-28 0 -57 7l0 106q43 -4 56.5 24.5q13.5 28.5 13.5 84.5zM38 641q0 30 19 49.5q19 19.5 54 19.5q35 0 56 -19q21 -19 21 -50q0 -31 -21 -49q-21 -18 -56 -18q-35 0 -54 18.5t-19 48.5z" />
<glyph unicode="&#107;" horiz-adv-x="412" d="M190 207h-28v-207h-119v700h119v-413l24 14l83 199h129l-92 -198l-43 -34l47 -34l102 -234l-134 0z" />
<glyph unicode="&#108;" horiz-adv-x="243" d="M164 162q0 -35 7 -50q7 -15 23 -15q9 0 18.5 2q9.5 2 21.5 7l11 -96q-12 -8 -41 -15q-29 -7 -59 -7q-50 0 -75 25q-25 25 -25 85v602l119 0z" />
<glyph unicode="&#109;" horiz-adv-x="663" d="M274 0v291q0 63 -10 87.5q-10 24.5 -39 24.5q-24 0 -39.5 -15.5q-15.5 -15.5 -23.5 -37.5l0 -350h-119v500h92l15 -60h3q19 31 47.5 51.5q28.5 20.5 75.5 20.5q39 0 63.5 -17q24.5 -17 38.5 -60q19 36 50 56.5q31 20.5 73 20.5q33 0 56.5 -8.5q23.5 -8.5 38 -29.5q14.5 -21 21.5 -57.5q7 -36.5 7 -92.5v-324h-119v304q0 51 -9 75q-9 24 -40 24q-25 0 -40.5 -14.5q-15.5 -14.5 -22.5 -39.5l0 -349z" />
<glyph unicode="&#110;" horiz-adv-x="449" d="M291 0v304q0 55 -13 77q-13 22 -44 22q-26 0 -45 -16q-19 -16 -27 -40l0 -347h-119v500h95l14 -58h3q18 29 49 49.5q31 20.5 81 20.5q30 0 53.5 -9q23.5 -9 39.5 -29.5q16 -20.5 24 -55q8 -34.5 8 -85.5l0 -333z" />
<glyph unicode="&#111;" horiz-adv-x="445" d="M25 250q0 133 52 198q52 65 145 65q100 0 149 -66q49 -66 49 -197q0 -134 -52 -198.5q-52 -64.5 -146 -64.5q-197 0 -197 263zt0 0zM148 250q0 -75 17 -116q17 -41 57 -41q38 0 56.5 35.5q18.5 35.5 18.5 121.5q0 77 -17 117q-17 40 -58 40q-35 0 -54.5 -35.5t-19.5 -121.5z" />
<glyph unicode="&#112;" horiz-adv-x="447" d="M43 500h89l12 -57h3q23 36 51.5 52.5q28.5 16.5 70.5 16.5q76 0 114.5 -57.5q38.5 -57.5 38.5 -191.5q0 -134 -48 -205.5q-48 -71.5 -139 -71.5q-24 0 -41 4q-17 4 -32 13l0 -203h-119zM162 112q10 -10 22.5 -15q12.5 -5 32.5 -5q40 0 61 39.5q21 39.5 21 134.5q0 71 -16 105.5q-16 34.5 -53 34.5q-50 0 -68 -59z" />
<glyph unicode="&#113;" horiz-adv-x="443" d="M401 -200h-119v235h-4q-14 -22 -36.5 -35.5q-22.5 -13.5 -60.5 -13.5q-74 0 -115 63q-41 63 -41 191q0 134 57 202.5q57 68.5 162 68.5q45 0 88.5 -9q43.5 -9 68.5 -20zM282 393q-21 12 -56 12q-39 0 -58.5 -37.5q-19.5 -37.5 -19.5 -122.5q0 -153 68 -153q27 0 42.5 13.5q15.5 13.5 23.5 38.5z" />
<glyph unicode="&#114;" horiz-adv-x="293" d="M279 382q-24 9 -44 9q-27 0 -46.5 -15q-19.5 -15 -26.5 -42l0 -334h-119v500h91l14 -60h4q13 33 37.5 51.5q24.5 18.5 56.5 18.5q24 0 47 -10z" />
<glyph unicode="&#115;" horiz-adv-x="350" d="M211 133q0 21 -13.5 35.5q-13.5 14.5 -34.5 27q-21 12.5 -44.5 25.5q-23.5 13 -44.5 32q-21 19 -34.5 46q-13.5 27 -13.5 68q0 70 38 108q38 38 112 38q44 0 83 -9.5q39 -9.5 62 -23.5l-28 -92q-19 8 -46 15.5q-27 7.5 -53 7.5q-49 0 -49 -41q0 -19 13.5 -31.5q13.5 -12.5 34.5 -24.5q21 -12 44.5 -25q23.5 -13 44.5 -32.5q21 -19.5 34.5 -47.5q13.5 -28 13.5 -69q0 -69 -42 -111q-42 -42 -125 -42q-41 0 -80.5 10q-39.5 10 -63.5 26l33 96q21 -12 48.5 -21q27.5 -9 57.5 -9q23 0 38 10.5t15 33.5z" />
<glyph unicode="&#116;" horiz-adv-x="291" d="M4 500h55v94l119 37v-131h97v-106h-97v-218q0 -43 8.5 -61q8.5 -18 30.5 -18q15 0 27 3q12 3 26 9l15 -95q-22 -11 -51 -18.5q-29 -7.5 -61 -7.5q-57 0 -85.5 33q-28.5 33 -28.5 111v262l-55 0z" />
<glyph unicode="&#117;" horiz-adv-x="446" d="M158 500v-299q0 -59 11 -82q11 -23 40 -23q28 0 47 20.5q19 20.5 27 49.5l0 334h119v-348q0 -41 3 -80.5q3 -39.5 11 -71.5l-90 0l-21 68h-3q-19 -35 -51.5 -58q-32.5 -23 -80.5 -23q-31 0 -55 8.5q-24 8.5 -41 29.5q-17 21 -26 57.5q-9 36.5 -9 92.5l0 325z" />
<glyph unicode="&#118;" horiz-adv-x="399" d="M195 239l12 -79h4l11 80l62 260h128l-168 -505h-80l-177 505l139 0z" />
<glyph unicode="&#119;" horiz-adv-x="596" d="M352 500l70 -256l12 -83h4l10 84l47 255h108l-123 -505h-94l-75 279l-8 64h-6l-7 -66l-72 -277h-97l-128 505h129l54 -251l9 -89h4l13 90l61 250z" />
<glyph unicode="&#120;" horiz-adv-x="439" d="M133 256l-119 244h140l51 -118l19 -64l21 64l52 118h129l-120 -240l128 -260h-135l-61 130l-22 71l-23 -71l-61 -130l-128 0z" />
<glyph unicode="&#121;" horiz-adv-x="400" d="M203 219l13 -78h5l9 79l58 280h122l-125 -451q-17 -59 -32 -106q-15 -47 -32 -80q-17 -33 -38.5 -50.5q-21.5 -17.5 -51.5 -17.5q-21 0 -40.5 3.5q-19.5 3.5 -33.5 11.5l20 102q13 -5 26.5 -4.5q13.5 0.5 25 10q11.5 9.5 20.5 29.5q9 20 15 53l-174 500l143 0z" />
<glyph unicode="&#122;" horiz-adv-x="381" d="M24 106l162 245l44 43h-206v106h331v-106l-160 -249l-43 -39h203v-106l-331 0z" />
<glyph unicode="&#123;" horiz-adv-x="313" d="M98 98q0 51 -17 70q-17 19 -49 19l0 96q32 0 49 20.5q17 20.5 17 64.5v214q0 53 20.5 86q20.5 33 70.5 33h107v-102h-41q-23 0 -33 -14q-10 -14 -10 -46v-203q0 -44 -17 -66.5q-17 -22.5 -40 -27.5l0 -10q23 -4 40 -30q17 -26 17 -68v-202q0 -31 9.5 -45.5q9.5 -14.5 34.5 -14.5h40v-102h-107q-91 0 -91 118z" />
<glyph unicode="&#124;" horiz-adv-x="188" d="M45 700h98v-830l-98 0z" />
<glyph unicode="&#125;" horiz-adv-x="313" d="M223 373q0 -51 17 -70q17 -19 49 -19l0 -96q-32 0 -49 -20.5q-17 -20.5 -17 -64.5v-215q0 -54 -21.5 -86q-21.5 -32 -72.5 -32h-104v102h41q23 0 33 14q10 14 10 46v203q0 44 17 66.5q17 22.5 40 27.5l0 10q-23 4 -40 30q-17 26 -17 68v202q0 31 -9.5 45.5q-9.5 14.5 -34.5 14.5h-40v102h107q91 0 91 -117z" />
<glyph unicode="&#126;" horiz-adv-x="444" d="M23 378q39 38 71 52.5q32 14.5 59 14.5q24 0 45 -8q21 -8 40 -18q19 -10 37.5 -18q18.5 -8 38.5 -8q15 0 30.5 6.5q15.5 6.5 32.5 21.5l44 -103q-30 -27 -55 -37.5q-25 -10.5 -47 -10.5q-23 0 -43.5 8.5q-20.5 8.5 -40 19q-19.5 10.5 -39 19.5q-19.5 9 -40.5 9q-20 0 -42.5 -10.5q-22.5 -10.5 -49.5 -37.5z" />
<glyph unicode="&#160;" horiz-adv-x="205" />
<glyph unicode="&#161;" horiz-adv-x="251" d="M169 -202h-123v329l23 163h76l24 -163zM35 433q0 38 19.5 57q19.5 19 51.5 19q35 0 54 -19q19 -19 19 -57q0 -35 -19.5 -55q-19.5 -20 -53.5 -20q-33 0 -52 20t-19 55z" />
<glyph unicode="&#162;" horiz-adv-x="478" d="M414 28q-14 -11 -33.5 -19.5q-19.5 -8.5 -41.5 -13.5l0 -95h-112v90q-43 7 -73 28.5q-30 21.5 -48.5 55.5q-18.5 34 -27 78.5q-8.5 44.5 -8.5 97.5q0 110 40.5 176.5q40.5 66.5 116.5 82.5l0 91h112v-91q43 -7 70 -24l-25 -96q-12 5 -26.5 8.5q-14.5 3.5 -28.5 5.5l0 -307q20 3 35 9q15 6 26 13zM252 401q-32 -11 -48.5 -47.5q-16.5 -36.5 -16.5 -103.5q0 -58 15.5 -97q15.5 -39 49.5 -53z" />
<glyph unicode="&#163;" horiz-adv-x="478" d="M44 392h60q-12 26 -21 58q-9 32 -9 78q0 48 14 83q14 35 38.5 58q24.5 23 58.5 34q34 11 75 11q51 0 92.5 -10q41.5 -10 73.5 -27l-38 -103q-17 10 -44.5 18.5q-27.5 8.5 -65.5 8.5q-38 0 -59.5 -23q-21.5 -23 -21.5 -71q0 -35 10.5 -61.5q10.5 -26.5 24.5 -53.5l117 0v-100h-83q2 -10 3 -19.5q1 -9.5 1 -20.5q0 -29 -9 -63q-9 -34 -26 -55l-45 -35v-6l66 16h183v-109h-395v109h2q25 1 45 12q20 11 33 29q13 18 20 41q7 23 7 48q0 29 -6 53l-101 0z" />
<glyph unicode="&#164;" horiz-adv-x="478" d="M56 607l71 -70l17 -33q18 14 42.5 20.5q24.5 6.5 51.5 6.5q26 0 52 -7q26 -7 44 -19l17 32l70 70l70 -73l-69 -70l-34 -15q25 -37 25 -93q0 -27 -6.5 -50.5q-6.5 -23.5 -18.5 -40.5l34 -14l69 -71l-70 -72l-70 69l-16 33q-17 -12 -44 -19q-27 -7 -53 -7q-27 0 -51.5 6.5q-24.5 6.5 -42.5 19.5l-17 -33l-71 -69l-69 72l69 71l33 16q-11 18 -17 40q-6 22 -6 49q0 27 6.5 50q6.5 23 18.5 43l-35 15l-69 70zM165 357q0 -33 20.5 -55q20.5 -22 53.5 -22q33 0 53.5 22q20.5 22 20.5 55q0 32 -20.5 55q-20.5 23 -53.5 23q-33 0 -53.5 -23t-20.5 -55z" />
<glyph unicode="&#165;" horiz-adv-x="478" d="M66 336h77l-155 364h150l97 -265l10 -76h5l11 78l95 263h135l-157 -364h78v-79h-110v-58h110v-79h-110v-120h-126v120h-110v79h110v58l-110 0z" />
<glyph unicode="&#166;" horiz-adv-x="188" d="M45 213h98v-343h-98zM143 357h-98v343l98 0z" />
<glyph unicode="&#167;" horiz-adv-x="444" d="M121 481q-23 17 -38 41q-15 24 -15 66q0 54 36.5 90q36.5 36 114.5 36q48 0 93 -9.5q45 -9.5 67 -21.5l-30 -99q-21 10 -51 17q-30 7 -56 7q-30 0 -42.5 -11.5q-12.5 -11.5 -12.5 -26.5q0 -19 16 -30q16 -11 40.5 -20q24.5 -9 53 -19.5q28.5 -10.5 53 -29q24.5 -18.5 40.5 -48q16 -29.5 16 -76.5q0 -31 -12.5 -61.5q-12.5 -30.5 -34.5 -53.5l-37 -14q23 -16 38 -40.5q15 -24.5 15 -65.5q0 -61 -41 -93.5q-41 -32.5 -114 -32.5q-56 0 -95.5 11q-39.5 11 -65.5 27l31 96q20 -11 47.5 -19.5q27.5 -8.5 61.5 -8.5q30 0 43.5 10q13.5 10 13.5 31q0 19 -16 29.5q-16 10.5 -40.5 20q-24.5 9.5 -52.5 20.5q-28 11 -52.5 29.5q-24.5 18.5 -40.5 47q-16 28.5 -16 73.5q0 31 12.5 61q12.5 30 35.5 53zM248 269q17 12 28 32.5q11 20.5 11 43.5q0 34 -24.5 50.5q-24.5 16.5 -67.5 33.5q-17 -12 -27.5 -30.5q-10.5 -18.5 -10.5 -43.5q0 -33 24.5 -51.5t66.5 -34.5z" />
<glyph unicode="&#168;" horiz-adv-x="432" d="M60 651q0 32 17.5 50q17.5 18 46.5 18q28 0 45 -18q17 -18 17 -50q0 -30 -17 -47.5q-17 -17.5 -45 -17.5q-29 0 -46.5 17.5q-17.5 17.5 -17.5 47.5zt0 0zM246 651q0 32 17 50q17 18 46 18q29 0 46 -18q17 -18 17 -50q0 -30 -17 -47.5q-17 -17.5 -46 -17.5q-29 0 -46 17.5t-17 47.5z" />
<glyph unicode="&#169;" horiz-adv-x="725" d="M51 298q0 72 24 129.5q24 57.5 66 98q42 40.5 99 62q57 21.5 123 21.5q65 0 122 -21.5q57 -21.5 99 -62q42 -40.5 66 -98q24 -57.5 24 -129.5q0 -72 -24 -129.5q-24 -57.5 -66 -98q-42 -40.5 -99 -62q-57 -21.5 -122 -21.5q-72 0 -130 21.5q-58 21.5 -98.5 62q-40.5 40.5 -62 98q-21.5 57.5 -21.5 129.5zt0 0zM137 298q0 -54 16.5 -96.5q16.5 -42.5 46.5 -72.5q30 -30 71.5 -46q41.5 -16 91.5 -16q49 0 90.5 16q41.5 16 71.5 46q30 30 46.5 72.5q16.5 42.5 16.5 96.5q0 54 -16.5 96.5q-16.5 42.5 -46.5 72.5q-30 30 -71.5 46q-41.5 16 -90.5 16q-50 0 -91.5 -16q-41.5 -16 -71.5 -46q-30 -30 -46.5 -72.5q-16.5 -42.5 -16.5 -96.5zt0 0zM471 161q-19 -12 -48 -19.5q-29 -7.5 -62 -7.5q-69 0 -106 44.5q-37 44.5 -37 119.5q0 78 39 121q39 43 104 43q32 0 56.5 -7.5q24.5 -7.5 47.5 -20.5l-28 -77q-15 8 -28 10.5q-13 2.5 -24 2.5q-25 0 -38.5 -17q-13.5 -17 -13.5 -55q0 -72 58 -72q29 0 54 13z" />
<glyph unicode="&#170;" horiz-adv-x="347" d="M45 675q22 14 62 23.5q40 9.5 91 9.5q66 0 90.5 -27.5q24.5 -27.5 24.5 -84.5q0 -34 -1 -66.5q-1 -32.5 -1 -62.5q0 -24 1 -45.5q1 -21.5 5 -41.5l-88 0l-13 44h-3q-10 -17 -30.5 -32.5q-20.5 -15.5 -55.5 -15.5q-46 0 -72 27.5q-26 27.5 -26 71.5q0 33 14.5 55q14.5 22 39.5 35q25 13 58 17.5q33 4.5 69 2.5q2 26 -5.5 38q-7.5 12 -35.5 12q-32 0 -58 -7q-26 -7 -44 -15zM210 526q-33 4 -55.5 -3.5q-22.5 -7.5 -22.5 -34.5q0 -16 8.5 -25.5q8.5 -9.5 21.5 -9.5q23 0 33 9q10 9 15 19z" />
<glyph unicode="&#171;" horiz-adv-x="405" d="M184 261l125 216l68 -45l-69 -133l-38 -39l38 -35l74 -131l-68 -46zM22 259l131 230l76 -51l-76 -137l-39 -41l39 -36l80 -135l-75 -51z" />
<glyph unicode="&#172;" horiz-adv-x="444" d="M40 409h368v-223h-112v117l-256 0z" />
<glyph unicode="&#173;" horiz-adv-x="298" d="M45 344h208v-114l-208 0z" />
<glyph unicode="&#174;" horiz-adv-x="595" d="M54 483q0 58 19.5 103.5q19.5 45.5 53 76.5q33.5 31 77.5 47q44 16 94 16q51 0 95 -16q44 -16 77 -47q33 -31 52 -76.5q19 -45.5 19 -103.5q0 -58 -19.5 -103.5q-19.5 -45.5 -52.5 -76.5q-33 -31 -77.5 -47q-44.5 -16 -93.5 -16q-51 0 -95.5 16q-44.5 16 -77.5 47q-33 31 -52 76.5q-19 45.5 -19 103.5zt0 0zM136 483q0 -42 13 -73q13 -31 35.5 -51.5q22.5 -20.5 51.5 -30.5q29 -10 62 -10q34 0 63.5 10q29.5 10 51.5 30q22 20 34 51.5q12 31.5 12 73.5q0 42 -13 73q-13 31 -35 51.5q-22 20.5 -51 31q-29 10.5 -62 10.5q-73 0 -117.5 -44q-44.5 -44 -44.5 -122zt0 0zM209 595q14 4 39 6.5q25 2.5 47 2.5q36 0 62 -15q26 -15 26 -52q0 -27 -17.5 -42q-17.5 -15 -43.5 -17l24 -12l56 -94h-53l-54 90l-41 13v-103h-45zM286 565q-10 0 -18.5 -0.5q-8.5 -0.5 -13.5 -3.5l0 -60h29q26 0 39 7.5q13 7.5 13 26.5q0 30 -49 30z" />
<glyph unicode="&#175;" horiz-adv-x="392" d="M60 658h272v-91l-272 0z" />
<glyph unicode="&#176;" horiz-adv-x="364" d="M44 548q0 37 10.5 68q10.5 31 29 52.5q18.5 21.5 44.5 33.5q26 12 57 12q64 0 103.5 -43q39.5 -43 39.5 -123q0 -78 -39.5 -121q-39.5 -43 -103.5 -43q-63 0 -102 43q-39 43 -39 121zt0 0zM134 548q0 -33 14 -55.5q14 -22.5 38 -22.5q23 0 37.5 22.5q14.5 22.5 14.5 55.5q0 34 -14.5 57q-14.5 23 -37.5 23q-24 0 -38 -22.5t-14 -57.5z" />
<glyph unicode="&#177;" horiz-adv-x="444" d="M38 500h129v143h110v-143h129v-106h-129v-94h-110v94h-129zM38 252h368v-106l-368 0z" />
<glyph unicode="&#178;" horiz-adv-x="353" d="M299 684q0 -30 -7.5 -56.5q-7.5 -26.5 -19.5 -50q-12 -23.5 -28 -44.5q-16 -21 -33 -40l-39 -25v0l48 7h90v-95h-265v67q23 18 49.5 43.5q26.5 25.5 49 54q22.5 28.5 37 58q14.5 29.5 14.5 57.5q0 51 -46 51q-22 0 -41 -6.5q-19 -6.5 -34 -15.5l-29 83q29 20 63 27.5q34 7.5 63 7.5q60 0 94 -31.5t34 -91.5z" />
<glyph unicode="&#179;" horiz-adv-x="353" d="M144 464q36 0 50.5 15q14.5 15 14.5 39q0 23 -15.5 36.5q-15.5 13.5 -55.5 13.5h-39v38l60 81l38 28l-50 -6h-93v91h240v-60l-70 -94l-30 -19v0l26 -1q43 -2 67.5 -31.5q24.5 -29.5 24.5 -83.5q0 -36 -12.5 -62q-12.5 -26 -33.5 -43q-21 -17 -48 -25q-27 -8 -58 -8q-32 0 -61 6.5q-29 6.5 -50 17.5v86q58 -19 95 -19z" />
<glyph unicode="&#180;" horiz-adv-x="281" d="M102 720h119v-30l-94 -124l-67 0z" />
<glyph unicode="&#181;" horiz-adv-x="476" d="M159 500v-287q0 -60 17 -89.5q17 -29.5 55 -29.5q35 0 55 17.5q20 17.5 30 47.5l0 341h119v-337q0 -41 2.5 -82.5q2.5 -41.5 10.5 -80.5l-89 0l-28 64h-4q-12 -32 -37 -54q-25 -22 -66 -22q-30 0 -47 13q-17 13 -31 33l-4 0l17 -101v-133h-119l0 700z" />
<glyph unicode="&#182;" horiz-adv-x="448" d="M306 700h97v-830h-97zM147 294q-28 0 -51.5 15.5q-23.5 15.5 -40 42.5q-16.5 27 -25.5 64q-9 37 -9 81q0 44 11 81q11 37 31.5 64q20.5 27 49.5 42.5q29 15.5 64 15.5h67v-830l-97 0z" />
<glyph unicode="&#183;" horiz-adv-x="212" d="M34 315q0 37 19.5 56q19.5 19 51.5 19q35 0 54 -19q19 -19 19 -56q0 -36 -19.5 -56q-19.5 -20 -53.5 -20q-33 0 -52 20t-19 56z" />
<glyph unicode="&#184;" horiz-adv-x="305" d="M191 0l-20 -43q34 -4 54 -21.5q20 -17.5 20 -53.5q0 -23 -10.5 -40q-10.5 -17 -28.5 -28.5q-18 -11.5 -42 -17.5q-24 -6 -50 -6q-27 0 -54 6l7 48q42 -4 55.5 5.5q13.5 9.5 13.5 23.5q0 28 -70 32l49 95z" />
<glyph unicode="&#185;" horiz-adv-x="353" d="M62 475h78v168l9 46l-26 -32l-46 -31l-44 69l131 112h82v-332h70v-95l-254 0z" />
<glyph unicode="&#186;" horiz-adv-x="350" d="M25 542q0 46 11 78q11 32 31 52.5q20 20.5 47.5 30q27.5 9.5 60.5 9.5q33 0 60.5 -8.5q27.5 -8.5 47.5 -28.5q20 -20 31.5 -52.5q11.5 -32.5 11.5 -80.5q0 -48 -11.5 -80.5q-11.5 -32.5 -31.5 -52.5q-20 -20 -47.5 -28.5q-27.5 -8.5 -60.5 -8.5q-33 0 -60.5 8.5q-27.5 8.5 -47.5 28.5q-20 20 -31 52.5q-11 32.5 -11 80.5zt0 0zM131 542q0 -48 10.5 -67.5q10.5 -19.5 33.5 -19.5q12 0 20.5 3.5q8.5 3.5 14 13.5q5.5 10 8 27q2.5 17 2.5 43q0 51 -11 69q-11 18 -34 18q-23 0 -33.5 -18t-10.5 -69z" />
<glyph unicode="&#187;" horiz-adv-x="405" d="M220 266l-125 -216l-68 43l70 135l37 39l-37 35l-74 132l67 45zM383 268l-131 -230l-76 49l74 139l40 41l-40 36l-79 135l75 51z" />
<glyph unicode="&#188;" horiz-adv-x="749" d="M713 80h-61v-80h-95v80h-172v64l178 281h89v-259h61zM557 250l7 55h-5l-19 -51l-38 -65l-30 -30l43 7h42zM503 715l81 -39l-342 -690l-83 41zM138 544l8 46l-26 -33l-44 -31l-45 70l131 111h81v-427l-105 0z" />
<glyph unicode="&#189;" horiz-adv-x="770" d="M503 715l81 -39l-342 -690l-83 41zM721 304q0 -30 -7.5 -56.5q-7.5 -26.5 -19.5 -50q-12 -23.5 -28 -44.5q-16 -21 -33 -40l-39 -25v0l48 7h90v-95h-265v67q23 18 49.5 43.5q26.5 25.5 49 54q22.5 28.5 37 58q14.5 29.5 14.5 57.5q0 51 -46 51q-22 0 -41 -6.5q-19 -6.5 -34 -15.5l-29 83q29 20 63 27.5q34 7.5 63 7.5q60 0 94 -31.5q34 -31.5 34 -91.5zt0 0zM137 544l8 46l-26 -33l-44 -31l-45 70l131 111h81v-427l-105 0z" />
<glyph unicode="&#190;" horiz-adv-x="766" d="M521 715l81 -39l-342 -690l-83 41zM132 364q36 0 50.5 15q14.5 15 14.5 39q0 23 -15.5 36.5q-15.5 13.5 -55.5 13.5h-39v38l60 81l38 28l-50 -6h-93v91h240v-60l-70 -94l-30 -19v0l26 -1q43 -2 67.5 -31.5q24.5 -29.5 24.5 -83.5q0 -36 -12.5 -62q-12.5 -26 -33.5 -43q-21 -17 -48 -25q-27 -8 -58 -8q-32 0 -61 6.5q-29 6.5 -50 17.5v86q58 -19 95 -19zt0 0zM730 80h-61v-80h-95v80h-172v64l178 281h89v-259h61zM574 250l7 55h-5l-19 -51l-38 -65l-30 -30l43 7l42 0z" />
<glyph unicode="&#191;" horiz-adv-x="382" d="M271 290q4 -46 -4 -80.5q-8 -34.5 -22 -61q-14 -26.5 -32 -47.5q-18 -21 -34 -41.5q-16 -20.5 -26.5 -43q-10.5 -22.5 -10.5 -50.5q0 -35 16.5 -55.5q16.5 -20.5 54.5 -20.5q26 0 55 10.5q29 10.5 50 28.5l47 -90q-31 -23 -73 -39q-42 -16 -102 -16q-80 0 -125.5 43.5q-45.5 43.5 -45.5 122.5q0 47 11 79.5q11 32.5 28 57q17 24.5 36.5 44.5q19.5 20 36 42q16.5 22 28 49.5q11.5 27.5 11.5 67.5zM287 433q0 -37 -19.5 -56q-19.5 -19 -51.5 -19q-35 0 -54 19q-19 19 -19 56q0 36 19.5 56q19.5 20 53.5 20q33 0 52 -20t19 -56z" />
<glyph unicode="&#192;" horiz-adv-x="501" d="M328 158h-165l-41 -158h-125l203 705h99l204 -705h-132zM190 262h116l-40 163l-16 110h-4l-17 -111zM334 752h-94l-130 88v30l142 0z" />
<glyph unicode="&#193;" horiz-adv-x="501" d="M328 158h-165l-41 -158h-125l203 705h99l204 -705h-132zM190 262h116l-40 163l-16 110h-4l-17 -111zM249 870h143v-30l-132 -88l-93 0z" />
<glyph unicode="&#194;" horiz-adv-x="501" d="M328 158h-165l-41 -158h-125l203 705h99l204 -705h-132zM190 262h116l-40 163l-16 110h-4l-17 -111zM209 870h87l104 -93v-39h-85l-47 41l-17 34l-18 -33l-50 -42h-83l0 40z" />
<glyph unicode="&#195;" horiz-adv-x="501" d="M328 158h-165l-41 -158h-125l203 705h99l204 -705h-132zM190 262h116l-40 163l-16 110h-4l-17 -111zM82 796q29 37 56 50.5q27 13.5 53 13.5q19 0 38 -5.5q19 -5.5 37 -11.5q18 -6 34.5 -11.5q16.5 -5.5 32.5 -5.5q14 0 27 5.5q13 5.5 25 19.5l27 -63q-26 -29 -49.5 -39.5q-23.5 -10.5 -46.5 -10.5q-19 0 -37.5 5.5q-18.5 5.5 -36 11.5q-17.5 6 -34.5 11.5q-17 5.5 -34 5.5q-17 0 -33 -7q-16 -7 -33 -27z" />
<glyph unicode="&#196;" horiz-adv-x="501" d="M328 158h-165l-41 -158h-125l203 705h99l204 -705h-132zM190 262h116l-40 163l-16 110h-4l-17 -111zM92 798q0 26 15.5 42q15.5 16 53.5 16q35 0 50.5 -16q15.5 -16 15.5 -42q0 -26 -15.5 -41.5q-15.5 -15.5 -50.5 -15.5q-38 0 -53.5 15.5q-15.5 15.5 -15.5 41.5zt0 0zM274 798q0 26 15.5 42q15.5 16 51.5 16q37 0 52.5 -16q15.5 -16 15.5 -42q0 -26 -15.5 -41.5q-15.5 -15.5 -52.5 -15.5q-36 0 -51.5 15.5t-15.5 41.5z" />
<glyph unicode="&#197;" horiz-adv-x="501" d="M-3 0l199 691q-31 10 -44 30.5q-13 20.5 -13 49.5q0 18 5 34.5q5 16.5 18 29q13 12.5 34 19.5q21 7 54 7q61 0 86.5 -24q25.5 -24 25.5 -66q0 -27 -13.5 -49q-13.5 -22 -45.5 -32l200 -690h-132l-43 158h-165l-41 -158zM190 262h116l-40 163l-16 110h-4l-17 -111zM214 771q0 -31 36 -31q21 0 29 7.5q8 7.5 8 23.5q0 17 -8.5 25.5q-8.5 8.5 -28.5 8.5q-36 0 -36 -34z" />
<glyph unicode="&#198;" horiz-adv-x="717" d="M326 522l-26 -97l-65 -148h96v245zM331 173h-144l-79 -173h-132l350 700h355v-116h-224v-172h203v-116h-203v-180h228v-116l-354 0z" />
<glyph unicode="&#199;" horiz-adv-x="457" d="M442 28q-22 -18 -55 -27.5q-33 -9.5 -68 -12.5l-14 -31q34 -4 54 -21.5q20 -17.5 20 -53.5q0 -23 -10.5 -40q-10.5 -17 -28.5 -28.5q-18 -11.5 -42 -17.5q-24 -6 -50 -6q-27 0 -54 6l7 48q42 -4 55.5 5.5q13.5 9.5 13.5 23.5q0 28 -70 32l43 84q-46 6 -85 29q-39 23 -67.5 66q-28.5 43 -45 109q-16.5 66 -16.5 158q0 106 22.5 176q22.5 70 59 111.5q36.5 41.5 83.5 58.5q47 17 95 17q49 0 85.5 -8q36.5 -8 59.5 -18l-25 -111q-19 10 -44.5 15.5q-25.5 5.5 -60.5 5.5q-69 0 -106 -60q-37 -60 -37 -188q0 -55 8.5 -100.5q8.5 -45.5 27 -78.5q18.5 -33 47 -51q28.5 -18 68.5 -18q35 0 60 9.5q25 9.5 45 22.5z" />
<glyph unicode="&#200;" horiz-adv-x="430" d="M45 700h350v-116h-224v-172h203v-116h-203v-180h228v-116h-354zM297 752h-94l-130 88v30l142 0z" />
<glyph unicode="&#201;" horiz-adv-x="430" d="M45 700h350v-116h-224v-172h203v-116h-203v-180h228v-116h-354zM234 870h143v-30l-132 -88l-93 0z" />
<glyph unicode="&#202;" horiz-adv-x="430" d="M45 700h350v-116h-224v-172h203v-116h-203v-180h228v-116h-354zM176 870h87l104 -93v-39h-85l-47 41l-17 34l-18 -33l-50 -42h-83l0 40z" />
<glyph unicode="&#203;" horiz-adv-x="430" d="M45 700h350v-116h-224v-172h203v-116h-203v-180h228v-116h-354zM60 798q0 26 15.5 42q15.5 16 53.5 16q35 0 50.5 -16q15.5 -16 15.5 -42q0 -26 -15.5 -41.5q-15.5 -15.5 -50.5 -15.5q-38 0 -53.5 15.5q-15.5 15.5 -15.5 41.5zt0 0zM242 798q0 26 15.5 42q15.5 16 51.5 16q37 0 52.5 -16q15.5 -16 15.5 -42q0 -26 -15.5 -41.5q-15.5 -15.5 -52.5 -15.5q-36 0 -51.5 15.5t-15.5 41.5z" />
<glyph unicode="&#204;" horiz-adv-x="238" d="M56 700h126v-700h-126zM202 752h-94l-130 88v30l142 0z" />
<glyph unicode="&#205;" horiz-adv-x="238" d="M56 700h126v-700h-126zM118 870h143v-30l-132 -88l-93 0z" />
<glyph unicode="&#206;" horiz-adv-x="238" d="M56 700h126v-700h-126zM78 870h87l104 -93v-39h-85l-47 41l-17 34l-18 -33l-50 -42h-83l0 40z" />
<glyph unicode="&#207;" horiz-adv-x="238" d="M56 700h126v-700h-126zM-39 798q0 26 15.5 42q15.5 16 53.5 16q35 0 50.5 -16q15.5 -16 15.5 -42q0 -26 -15.5 -41.5q-15.5 -15.5 -50.5 -15.5q-38 0 -53.5 15.5q-15.5 15.5 -15.5 41.5zt0 0zM143 798q0 26 15.5 42q15.5 16 51.5 16q37 0 52.5 -16q15.5 -16 15.5 -42q0 -26 -15.5 -41.5q-15.5 -15.5 -52.5 -15.5q-36 0 -51.5 15.5t-15.5 41.5z" />
<glyph unicode="&#208;" horiz-adv-x="555" d="M-3 401h68v299q18 3 40.5 4.5q22.5 1.5 46 3q23.5 1.5 45.5 2q22 0.5 39 0.5q83 0 138.5 -25.5q55.5 -25.5 89 -72q33.5 -46.5 47.5 -111.5q14 -65 14 -145q0 -73 -13.5 -139.5q-13.5 -66.5 -47.5 -117q-34 -50.5 -92 -80.5q-58 -30 -146 -30q-13 0 -35 1q-22 1 -46 2.5q-24 1.5 -46 3q-22 1.5 -34 3.5l0 323h-68zM191 401h108v-79h-108v-213q3 -1 10.5 -1.5q7.5 -0.5 16 -1q8.5 -0.5 16 -1q7.5 -0.5 10.5 -0.5q45 0 74 21q29 21 45.5 56q16.5 35 23 80.5q6.5 45.5 6.5 95.5q0 46 -5.5 89q-5.5 43 -21 75.5q-15.5 32.5 -44 52q-28.5 19.5 -73.5 19.5q-16 0 -32.5 -0.5q-16.5 -0.5 -25.5 -2.5z" />
<glyph unicode="&#209;" horiz-adv-x="540" d="M199 344l-46 123h-5l16 -121v-346h-119v705h97l201 -352l43 -121h6l-16 119v349h119v-705h-97zM104 796q29 37 56 50.5q27 13.5 53 13.5q19 0 38 -5.5q19 -5.5 37 -11.5q18 -6 34.5 -11.5q16.5 -5.5 32.5 -5.5q14 0 27 5.5q13 5.5 25 19.5l27 -63q-26 -29 -49.5 -39.5q-23.5 -10.5 -46.5 -10.5q-19 0 -37.5 5.5q-18.5 5.5 -36 11.5q-17.5 6 -34.5 11.5q-17 5.5 -34 5.5q-17 0 -33 -7q-16 -7 -33 -27z" />
<glyph unicode="&#210;" horiz-adv-x="553" d="M29 350q0 178 61 271q61 93 186 93q65 0 112 -25.5q47 -25.5 77 -73q30 -47.5 44.5 -115q14.5 -67.5 14.5 -150.5q0 -178 -62.5 -271q-62.5 -93 -185.5 -93q-66 0 -112.5 25.5q-46.5 25.5 -76.5 73q-30 47.5 -44 115q-14 67.5 -14 150.5zt0 0zM161 350q0 -53 6 -98.5q6 -45.5 20 -78.5q14 -33 35.5 -52q21.5 -19 53.5 -19q58 0 87 59q29 59 29 189q0 51 -6 96.5q-6 45.5 -19.5 79q-13.5 33.5 -35.5 53q-22 19.5 -55 19.5q-115 0 -115 -248zt0 0zM344 752h-94l-130 88v30l142 0z" />
<glyph unicode="&#211;" horiz-adv-x="553" d="M29 350q0 178 61 271q61 93 186 93q65 0 112 -25.5q47 -25.5 77 -73q30 -47.5 44.5 -115q14.5 -67.5 14.5 -150.5q0 -178 -62.5 -271q-62.5 -93 -185.5 -93q-66 0 -112.5 25.5q-46.5 25.5 -76.5 73q-30 47.5 -44 115q-14 67.5 -14 150.5zt0 0zM161 350q0 -53 6 -98.5q6 -45.5 20 -78.5q14 -33 35.5 -52q21.5 -19 53.5 -19q58 0 87 59q29 59 29 189q0 51 -6 96.5q-6 45.5 -19.5 79q-13.5 33.5 -35.5 53q-22 19.5 -55 19.5q-115 0 -115 -248zt0 0zM301 870h143v-30l-132 -88l-93 0z" />
<glyph unicode="&#212;" horiz-adv-x="553" d="M29 350q0 178 61 271q61 93 186 93q65 0 112 -25.5q47 -25.5 77 -73q30 -47.5 44.5 -115q14.5 -67.5 14.5 -150.5q0 -178 -62.5 -271q-62.5 -93 -185.5 -93q-66 0 -112.5 25.5q-46.5 25.5 -76.5 73q-30 47.5 -44 115q-14 67.5 -14 150.5zt0 0zM161 350q0 -53 6 -98.5q6 -45.5 20 -78.5q14 -33 35.5 -52q21.5 -19 53.5 -19q58 0 87 59q29 59 29 189q0 51 -6 96.5q-6 45.5 -19.5 79q-13.5 33.5 -35.5 53q-22 19.5 -55 19.5q-115 0 -115 -248zt0 0zM234 870h87l104 -93v-39h-85l-47 41l-17 34l-18 -33l-50 -42h-83l0 40z" />
<glyph unicode="&#213;" horiz-adv-x="553" d="M29 350q0 178 61 271q61 93 186 93q65 0 112 -25.5q47 -25.5 77 -73q30 -47.5 44.5 -115q14.5 -67.5 14.5 -150.5q0 -178 -62.5 -271q-62.5 -93 -185.5 -93q-66 0 -112.5 25.5q-46.5 25.5 -76.5 73q-30 47.5 -44 115q-14 67.5 -14 150.5zt0 0zM161 350q0 -53 6 -98.5q6 -45.5 20 -78.5q14 -33 35.5 -52q21.5 -19 53.5 -19q58 0 87 59q29 59 29 189q0 51 -6 96.5q-6 45.5 -19.5 79q-13.5 33.5 -35.5 53q-22 19.5 -55 19.5q-115 0 -115 -248zt0 0zM110 796q29 37 56 50.5q27 13.5 53 13.5q19 0 38 -5.5q19 -5.5 37 -11.5q18 -6 34.5 -11.5q16.5 -5.5 32.5 -5.5q14 0 27 5.5q13 5.5 25 19.5l27 -63q-26 -29 -49.5 -39.5q-23.5 -10.5 -46.5 -10.5q-19 0 -37.5 5.5q-18.5 5.5 -36 11.5q-17.5 6 -34.5 11.5q-17 5.5 -34 5.5q-17 0 -33 -7q-16 -7 -33 -27z" />
<glyph unicode="&#214;" horiz-adv-x="553" d="M29 350q0 178 61 271q61 93 186 93q65 0 112 -25.5q47 -25.5 77 -73q30 -47.5 44.5 -115q14.5 -67.5 14.5 -150.5q0 -178 -62.5 -271q-62.5 -93 -185.5 -93q-66 0 -112.5 25.5q-46.5 25.5 -76.5 73q-30 47.5 -44 115q-14 67.5 -14 150.5zt0 0zM161 350q0 -53 6 -98.5q6 -45.5 20 -78.5q14 -33 35.5 -52q21.5 -19 53.5 -19q58 0 87 59q29 59 29 189q0 51 -6 96.5q-6 45.5 -19.5 79q-13.5 33.5 -35.5 53q-22 19.5 -55 19.5q-115 0 -115 -248zt0 0zM118 798q0 26 15.5 42q15.5 16 53.5 16q35 0 50.5 -16q15.5 -16 15.5 -42q0 -26 -15.5 -41.5q-15.5 -15.5 -50.5 -15.5q-38 0 -53.5 15.5q-15.5 15.5 -15.5 41.5zt0 0zM300 798q0 26 15.5 42q15.5 16 51.5 16q37 0 52.5 -16q15.5 -16 15.5 -42q0 -26 -15.5 -41.5q-15.5 -15.5 -52.5 -15.5q-36 0 -51.5 15.5t-15.5 41.5z" />
<glyph unicode="&#215;" horiz-adv-x="444" d="M112 541l111 -124l111 124l76 -73l-115 -129l115 -131l-76 -73l-111 124l-112 -125l-77 72l118 133l-116 129z" />
<glyph unicode="&#216;" horiz-adv-x="553" d="M88 83q-31 48 -45 115q-14 67 -14 152q0 178 61 271q61 93 186 93q72 0 125 -33l18 34l79 -41l-32 -61q30 -48 44 -114q14 -66 14 -149q0 -178 -62.5 -271q-62.5 -93 -185.5 -93q-36 0 -66 8q-30 8 -55 22l-16 -30l-79 43zM342 567q-26 31 -66 31q-115 0 -115 -248q0 -31 2 -59q2 -28 6 -54zM213 129q25 -27 63 -27q58 0 87 59q29 59 29 189q0 29 -2 55.5q-2 26.5 -6 51.5z" />
<glyph unicode="&#217;" horiz-adv-x="515" d="M354 700h119v-454q0 -136 -55.5 -197q-55.5 -61 -153.5 -61q-115 0 -168.5 59.5q-53.5 59.5 -53.5 181.5v471h126v-449q0 -82 22 -114.5q22 -32.5 73 -32.5q49 0 70 34.5q21 34.5 21 112.5zM326 752h-94l-130 88v30l142 0z" />
<glyph unicode="&#218;" horiz-adv-x="515" d="M354 700h119v-454q0 -136 -55.5 -197q-55.5 -61 -153.5 -61q-115 0 -168.5 59.5q-53.5 59.5 -53.5 181.5v471h126v-449q0 -82 22 -114.5q22 -32.5 73 -32.5q49 0 70 34.5q21 34.5 21 112.5zM296 870h143v-30l-132 -88l-93 0z" />
<glyph unicode="&#219;" horiz-adv-x="515" d="M354 700h119v-454q0 -136 -55.5 -197q-55.5 -61 -153.5 -61q-115 0 -168.5 59.5q-53.5 59.5 -53.5 181.5v471h126v-449q0 -82 22 -114.5q22 -32.5 73 -32.5q49 0 70 34.5q21 34.5 21 112.5zM220 870h87l104 -93v-39h-85l-47 41l-17 34l-18 -33l-50 -42h-83l0 40z" />
<glyph unicode="&#220;" horiz-adv-x="515" d="M354 700h119v-454q0 -136 -55.5 -197q-55.5 -61 -153.5 -61q-115 0 -168.5 59.5q-53.5 59.5 -53.5 181.5v471h126v-449q0 -82 22 -114.5q22 -32.5 73 -32.5q49 0 70 34.5q21 34.5 21 112.5zM101 798q0 26 15.5 42q15.5 16 53.5 16q35 0 50.5 -16q15.5 -16 15.5 -42q0 -26 -15.5 -41.5q-15.5 -15.5 -50.5 -15.5q-38 0 -53.5 15.5q-15.5 15.5 -15.5 41.5zt0 0zM283 798q0 26 15.5 42q15.5 16 51.5 16q37 0 52.5 -16q15.5 -16 15.5 -42q0 -26 -15.5 -41.5q-15.5 -15.5 -52.5 -15.5q-36 0 -51.5 15.5t-15.5 41.5z" />
<glyph unicode="&#221;" horiz-adv-x="495" d="M184 260l-188 440h150l97 -265l10 -76h5l11 78l95 263h135l-189 -439v-261h-126zM265 870h143v-30l-132 -88l-93 0z" />
<glyph unicode="&#222;" horiz-adv-x="477" d="M45 700h126v-73q19 1 39 1q46 0 90.5 -8.5q44.5 -8.5 79.5 -33.5q35 -25 57 -70.5q22 -45.5 22 -118.5q0 -65 -18.5 -111q-18.5 -46 -49.5 -75q-31 -29 -71.5 -42.5q-40.5 -13.5 -83.5 -13.5h-13q-9 0 -19 0.5q-10 0.5 -19.5 1.5q-9.5 1 -13.5 2l0 -159h-126zM222 516q-31 0 -51 -5l0 -238q6 -2 22.5 -3.5q16.5 -1.5 22.5 -1.5q22 0 42 5.5q20 5.5 35 20.5q15 15 24 40q9 25 9 64q0 34 -8.5 56.5q-8.5 22.5 -22.5 36q-14 13.5 -33 19.5t-40 6z" />
<glyph unicode="&#223;" horiz-adv-x="535" d="M63 394h-54v106h54v11q0 54 14 92q14 38 39 61q25 23 59 33.5q34 10.5 75 10.5q42 0 78 -9.5q36 -9.5 62.5 -29q26.5 -19.5 41.5 -48q15 -28.5 15 -66.5q0 -35 -15 -58.5q-15 -23.5 -33.5 -42.5q-18.5 -19 -33.5 -36q-15 -17 -15 -38q0 -19 12 -32q12 -13 30.5 -25q18.5 -12 40 -25q21.5 -13 40 -32q18.5 -19 30.5 -45.5q12 -26.5 12 -65.5q0 -33 -10 -63.5q-10 -30.5 -30.5 -53.5q-20.5 -23 -51 -37q-30.5 -14 -71.5 -14q-38 0 -73 9.5q-35 9.5 -59 24.5l31 94q20 -11 39.5 -18.5q19.5 -7.5 47.5 -7.5q26 0 42 18q16 18 16 44q0 23 -12 38q-12 15 -30.5 28q-18.5 13 -40 25.5q-21.5 12.5 -40 29q-18.5 16.5 -30.5 40.5q-12 24 -12 59q0 36 15 59q15 23 33 41q18 18 33 34.5q15 16.5 15 38.5q0 26 -22 42.5q-22 16.5 -48 16.5q-36 0 -55.5 -22.5q-19.5 -22.5 -19.5 -85.5v-495l-119 0z" />
<glyph unicode="&#224;" horiz-adv-x="413" d="M44 470q30 18 75 29q45 11 102 11q85 0 118.5 -44q33.5 -44 33.5 -125q0 -47 -2.5 -92.5q-2.5 -45.5 -3.5 -89q-1 -43.5 1.5 -84q2.5 -40.5 13.5 -76.5l-97 0l-19 61h-4q-16 -29 -45 -48q-29 -19 -73 -19q-59 0 -93 39.5q-34 39.5 -34 105.5q0 90 64 128q64 38 173 32q5 58 -7.5 84q-12.5 26 -53.5 26q-30 0 -62 -7q-32 -7 -57 -20zM187 95q27 0 44 13.5q17 13.5 25 29.5l0 83q-23 3 -44 1q-21 -2 -37 -9q-16 -7 -25.5 -20.5q-9.5 -13.5 -9.5 -34.5q0 -31 12.5 -47q12.5 -16 34.5 -16zt0 0zM259 566h-66l-104 124v30l121 0z" />
<glyph unicode="&#225;" horiz-adv-x="413" d="M44 470q30 18 75 29q45 11 102 11q85 0 118.5 -44q33.5 -44 33.5 -125q0 -47 -2.5 -92.5q-2.5 -45.5 -3.5 -89q-1 -43.5 1.5 -84q2.5 -40.5 13.5 -76.5l-97 0l-19 61h-4q-16 -29 -45 -48q-29 -19 -73 -19q-59 0 -93 39.5q-34 39.5 -34 105.5q0 90 64 128q64 38 173 32q5 58 -7.5 84q-12.5 26 -53.5 26q-30 0 -62 -7q-32 -7 -57 -20zM187 95q27 0 44 13.5q17 13.5 25 29.5l0 83q-23 3 -44 1q-21 -2 -37 -9q-16 -7 -25.5 -20.5q-9.5 -13.5 -9.5 -34.5q0 -31 12.5 -47q12.5 -16 34.5 -16zt0 0zM196 720h119v-30l-94 -124l-67 0z" />
<glyph unicode="&#226;" horiz-adv-x="413" d="M44 470q30 18 75 29q45 11 102 11q85 0 118.5 -44q33.5 -44 33.5 -125q0 -47 -2.5 -92.5q-2.5 -45.5 -3.5 -89q-1 -43.5 1.5 -84q2.5 -40.5 13.5 -76.5l-97 0l-19 61h-4q-16 -29 -45 -48q-29 -19 -73 -19q-59 0 -93 39.5q-34 39.5 -34 105.5q0 90 64 128q64 38 173 32q5 58 -7.5 84q-12.5 26 -53.5 26q-30 0 -62 -7q-32 -7 -57 -20zM187 95q27 0 44 13.5q17 13.5 25 29.5l0 83q-23 3 -44 1q-21 -2 -37 -9q-16 -7 -25.5 -20.5q-9.5 -13.5 -9.5 -34.5q0 -31 12.5 -47q12.5 -16 34.5 -16zt0 0zM174 732h85l91 -182h-93l-32 66l-13 49l-13 -49l-37 -66l-89 0z" />
<glyph unicode="&#227;" horiz-adv-x="413" d="M44 470q30 18 75 29q45 11 102 11q85 0 118.5 -44q33.5 -44 33.5 -125q0 -47 -2.5 -92.5q-2.5 -45.5 -3.5 -89q-1 -43.5 1.5 -84q2.5 -40.5 13.5 -76.5l-97 0l-19 61h-4q-16 -29 -45 -48q-29 -19 -73 -19q-59 0 -93 39.5q-34 39.5 -34 105.5q0 90 64 128q64 38 173 32q5 58 -7.5 84q-12.5 26 -53.5 26q-30 0 -62 -7q-32 -7 -57 -20zM187 95q27 0 44 13.5q17 13.5 25 29.5l0 83q-23 3 -44 1q-21 -2 -37 -9q-16 -7 -25.5 -20.5q-9.5 -13.5 -9.5 -34.5q0 -31 12.5 -47q12.5 -16 34.5 -16zt0 0zM60 656q29 37 54 50.5q25 13.5 46 13.5q18 0 33.5 -6.5q15.5 -6.5 30.5 -15q15 -8.5 30 -15q15 -6.5 30 -6.5q11 0 23 5q12 5 26 18l22 -61q-27 -32 -50.5 -44q-23.5 -12 -43.5 -12q-18 0 -33.5 6q-15.5 6 -30.5 13.5q-15 7.5 -30 14q-15 6.5 -30 6.5q-13 0 -26 -5.5q-13 -5.5 -27 -19.5z" />
<glyph unicode="&#228;" horiz-adv-x="413" d="M44 470q30 18 75 29q45 11 102 11q85 0 118.5 -44q33.5 -44 33.5 -125q0 -47 -2.5 -92.5q-2.5 -45.5 -3.5 -89q-1 -43.5 1.5 -84q2.5 -40.5 13.5 -76.5l-97 0l-19 61h-4q-16 -29 -45 -48q-29 -19 -73 -19q-59 0 -93 39.5q-34 39.5 -34 105.5q0 90 64 128q64 38 173 32q5 58 -7.5 84q-12.5 26 -53.5 26q-30 0 -62 -7q-32 -7 -57 -20zM187 95q27 0 44 13.5q17 13.5 25 29.5l0 83q-23 3 -44 1q-21 -2 -37 -9q-16 -7 -25.5 -20.5q-9.5 -13.5 -9.5 -34.5q0 -31 12.5 -47q12.5 -16 34.5 -16zt0 0zM55 651q0 32 17.5 50q17.5 18 46.5 18q28 0 45 -18q17 -18 17 -50q0 -30 -17 -47.5q-17 -17.5 -45 -17.5q-29 0 -46.5 17.5q-17.5 17.5 -17.5 47.5zt0 0zM241 651q0 32 17 50q17 18 46 18q29 0 46 -18q17 -18 17 -50q0 -30 -17 -47.5q-17 -17.5 -46 -17.5q-29 0 -46 17.5t-17 47.5z" />
<glyph unicode="&#229;" horiz-adv-x="413" d="M44 470q30 18 75 29q45 11 102 11q85 0 118.5 -44q33.5 -44 33.5 -125q0 -47 -2.5 -92.5q-2.5 -45.5 -3.5 -89q-1 -43.5 1.5 -84q2.5 -40.5 13.5 -76.5l-97 0l-19 61h-4q-16 -29 -45 -48q-29 -19 -73 -19q-59 0 -93 39.5q-34 39.5 -34 105.5q0 90 64 128q64 38 173 32q5 58 -7.5 84q-12.5 26 -53.5 26q-30 0 -62 -7q-32 -7 -57 -20zM187 95q27 0 44 13.5q17 13.5 25 29.5l0 83q-23 3 -44 1q-21 -2 -37 -9q-16 -7 -25.5 -20.5q-9.5 -13.5 -9.5 -34.5q0 -31 12.5 -47q12.5 -16 34.5 -16zt0 0zM114 647q0 45 24.5 70q24.5 25 72.5 25q46 0 72 -23.5q26 -23.5 26 -71.5q0 -42 -25.5 -67.5q-25.5 -25.5 -72.5 -25.5q-47 0 -72 25q-25 25 -25 68zt0 0zM181 647q0 -17 8.5 -25.5q8.5 -8.5 21.5 -8.5q31 0 31 34q0 19 -8.5 27.5q-8.5 8.5 -22.5 8.5q-13 0 -21.5 -8t-8.5 -28z" />
<glyph unicode="&#230;" horiz-adv-x="653" d="M257 223q-23 2 -44 0.5q-21 -1.5 -37.5 -9q-16.5 -7.5 -26 -21q-9.5 -13.5 -9.5 -35.5q0 -28 12 -44q12 -16 35 -16q28 0 45 13.5q17 13.5 25 31.5zM287 68q-21 -34 -53.5 -55q-32.5 -21 -87.5 -21q-60 0 -94.5 41q-34.5 41 -34.5 106q0 46 16.5 77.5q16.5 31.5 47 51q30.5 19.5 74.5 27.5q44 8 98 5q1 9 1 16.5q0 7.5 0 15.5q0 39 -13 56.5q-13 17.5 -47 17.5q-31 0 -63 -9q-32 -9 -57 -23l-31 90q32 21 78 33.5q46 12.5 96 12.5q42 0 68.5 -13q26.5 -13 43.5 -41q20 29 52 43.5q32 14.5 72 14.5q32 0 62.5 -9.5q30.5 -9.5 54 -32.5q23.5 -23 37.5 -61q14 -38 14 -95q0 -22 -2.5 -47q-2.5 -25 -7.5 -53l-241 0q2 -66 25 -96.5q23 -30.5 75 -30.5q31 0 57.5 9.5q26.5 9.5 40.5 20.5l39 -83q-25 -20 -67 -34.5q-42 -14.5 -93 -14.5q-109 0 -155 81zM510 295q3 54 -12 85.5q-15 31.5 -48 31.5q-38 0 -56 -30q-18 -30 -21 -87z" />
<glyph unicode="&#231;" horiz-adv-x="350" d="M338 27q-18 -15 -41 -23.5q-23 -8.5 -49 -13.5l-15 -33q34 -4 54 -21.5q20 -17.5 20 -53.5q0 -23 -10.5 -40q-10.5 -17 -28.5 -28.5q-18 -11.5 -42 -17.5q-24 -6 -50 -6q-27 0 -54 6l7 48q42 -4 55.5 5.5q13.5 9.5 13.5 23.5q0 28 -70 32l43 85q-80 13 -113 82q-33 69 -33 178q0 131 47 197q47 66 138 66q45 0 73.5 -8q28.5 -8 50.5 -20l-28 -99q-18 9 -34.5 13.5q-16.5 4.5 -39.5 4.5q-42 0 -63 -36.5q-21 -36.5 -21 -117.5q0 -68 21.5 -111q21.5 -43 68.5 -43q25 0 42.5 6.5q17.5 6.5 32.5 16.5z" />
<glyph unicode="&#232;" horiz-adv-x="428" d="M381 37q-25 -22 -68 -36q-43 -14 -90 -14q-52 0 -89.5 18q-37.5 18 -61.5 52q-24 34 -35.5 82.5q-11.5 48.5 -11.5 110.5q0 135 53.5 199.5q53.5 64.5 148.5 64.5q32 0 62 -9.5q30 -9.5 53.5 -32q23.5 -22.5 38 -60q14.5 -37.5 14.5 -94.5q0 -22 -2.5 -47q-2.5 -25 -7.5 -54l-243 0q2 -62 26 -95q24 -33 77 -33q32 0 58.5 10q26.5 10 40.5 21zM225 412q-38 0 -57 -30.5q-19 -30.5 -22 -85.5l138 0q3 57 -12 86.5q-15 29.5 -47 29.5zt0 0zM271 566h-66l-104 124v30l121 0z" />
<glyph unicode="&#233;" horiz-adv-x="428" d="M381 37q-25 -22 -68 -36q-43 -14 -90 -14q-52 0 -89.5 18q-37.5 18 -61.5 52q-24 34 -35.5 82.5q-11.5 48.5 -11.5 110.5q0 135 53.5 199.5q53.5 64.5 148.5 64.5q32 0 62 -9.5q30 -9.5 53.5 -32q23.5 -22.5 38 -60q14.5 -37.5 14.5 -94.5q0 -22 -2.5 -47q-2.5 -25 -7.5 -54l-243 0q2 -62 26 -95q24 -33 77 -33q32 0 58.5 10q26.5 10 40.5 21zM225 412q-38 0 -57 -30.5q-19 -30.5 -22 -85.5l138 0q3 57 -12 86.5q-15 29.5 -47 29.5zt0 0zM223 720h119v-30l-94 -124l-67 0z" />
<glyph unicode="&#234;" horiz-adv-x="428" d="M381 37q-25 -22 -68 -36q-43 -14 -90 -14q-52 0 -89.5 18q-37.5 18 -61.5 52q-24 34 -35.5 82.5q-11.5 48.5 -11.5 110.5q0 135 53.5 199.5q53.5 64.5 148.5 64.5q32 0 62 -9.5q30 -9.5 53.5 -32q23.5 -22.5 38 -60q14.5 -37.5 14.5 -94.5q0 -22 -2.5 -47q-2.5 -25 -7.5 -54l-243 0q2 -62 26 -95q24 -33 77 -33q32 0 58.5 10q26.5 10 40.5 21zM225 412q-38 0 -57 -30.5q-19 -30.5 -22 -85.5l138 0q3 57 -12 86.5q-15 29.5 -47 29.5zt0 0zM179 732h85l91 -182h-93l-32 66l-13 49l-13 -49l-37 -66l-89 0z" />
<glyph unicode="&#235;" horiz-adv-x="428" d="M381 37q-25 -22 -68 -36q-43 -14 -90 -14q-52 0 -89.5 18q-37.5 18 -61.5 52q-24 34 -35.5 82.5q-11.5 48.5 -11.5 110.5q0 135 53.5 199.5q53.5 64.5 148.5 64.5q32 0 62 -9.5q30 -9.5 53.5 -32q23.5 -22.5 38 -60q14.5 -37.5 14.5 -94.5q0 -22 -2.5 -47q-2.5 -25 -7.5 -54l-243 0q2 -62 26 -95q24 -33 77 -33q32 0 58.5 10q26.5 10 40.5 21zM225 412q-38 0 -57 -30.5q-19 -30.5 -22 -85.5l138 0q3 57 -12 86.5q-15 29.5 -47 29.5zt0 0zM65 651q0 32 17.5 50q17.5 18 46.5 18q28 0 45 -18q17 -18 17 -50q0 -30 -17 -47.5q-17 -17.5 -45 -17.5q-29 0 -46.5 17.5q-17.5 17.5 -17.5 47.5zt0 0zM251 651q0 32 17 50q17 18 46 18q29 0 46 -18q17 -18 17 -50q0 -30 -17 -47.5q-17 -17.5 -46 -17.5q-29 0 -46 17.5t-17 47.5z" />
<glyph unicode="&#236;" horiz-adv-x="225" d="M53 500h119v-500h-119zM164 566h-66l-104 124v30l121 0z" />
<glyph unicode="&#237;" horiz-adv-x="225" d="M53 500h119v-500h-119zM100 720h119v-30l-94 -124l-67 0z" />
<glyph unicode="&#238;" horiz-adv-x="225" d="M53 500h119v-500h-119zM73 732h85l91 -182h-93l-32 66l-13 49l-13 -49l-37 -66l-89 0z" />
<glyph unicode="&#239;" horiz-adv-x="225" d="M53 500h119v-500h-119zM-44 651q0 32 17.5 50q17.5 18 46.5 18q28 0 45 -18q17 -18 17 -50q0 -30 -17 -47.5q-17 -17.5 -45 -17.5q-29 0 -46.5 17.5q-17.5 17.5 -17.5 47.5zt0 0zM142 651q0 32 17 50q17 18 46 18q29 0 46 -18q17 -18 17 -50q0 -30 -17 -47.5q-17 -17.5 -46 -17.5q-29 0 -46 17.5t-17 47.5z" />
<glyph unicode="&#240;" horiz-adv-x="458" d="M142 244q0 -81 24.5 -116.5q24.5 -35.5 64.5 -35.5q19 0 34.5 10q15.5 10 27 32.5q11.5 22.5 18 58q6.5 35.5 6.5 87.5q0 6 -0.5 17q-0.5 11 -1 22q-0.5 11 -1.5 22q-1 11 -2 17q-13 18 -35.5 26.5q-22.5 8.5 -45.5 8.5q-44 0 -66.5 -39q-22.5 -39 -22.5 -110zt0 0zM149 580l48 37q-30 18 -62 29l48 68q21 -7 47 -19q20 -9 40 -22l47 36l40 -50l-37 -29q9 -9 18 -20q27 -30 47.5 -73q20.5 -43 33 -99.5q12.5 -56.5 12.5 -129.5q0 -86 -14.5 -147q-14.5 -61 -41.5 -100q-27 -39 -65.5 -57q-38.5 -18 -86.5 -18q-97 0 -146.5 67.5q-49.5 67.5 -49.5 191.5q0 61 14 108q14 47 39 79.5q25 32.5 59.5 49.5q34.5 17 75.5 17q29 0 54.5 -9q25.5 -9 41.5 -28q-18 70 -63 114l-58 -45z" />
<glyph unicode="&#241;" horiz-adv-x="449" d="M291 0v304q0 55 -13 77q-13 22 -44 22q-26 0 -45 -16q-19 -16 -27 -40l0 -347h-119v500h95l14 -58h3q18 29 49 49.5q31 20.5 81 20.5q30 0 53.5 -9q23.5 -9 39.5 -29.5q16 -20.5 24 -55q8 -34.5 8 -85.5v-333zM77 656q29 37 54 50.5q25 13.5 46 13.5q18 0 33.5 -6.5q15.5 -6.5 30.5 -15q15 -8.5 30 -15q15 -6.5 30 -6.5q11 0 23 5q12 5 26 18l22 -61q-27 -32 -50.5 -44q-23.5 -12 -43.5 -12q-18 0 -33.5 6q-15.5 6 -30.5 13.5q-15 7.5 -30 14q-15 6.5 -30 6.5q-13 0 -26 -5.5q-13 -5.5 -27 -19.5z" />
<glyph unicode="&#242;" horiz-adv-x="445" d="M25 250q0 133 52 198q52 65 145 65q100 0 149 -66q49 -66 49 -197q0 -134 -52 -198.5q-52 -64.5 -146 -64.5q-197 0 -197 263zt0 0zM148 250q0 -75 17 -116q17 -41 57 -41q38 0 56.5 35.5q18.5 35.5 18.5 121.5q0 77 -17 117q-17 40 -58 40q-35 0 -54.5 -35.5q-19.5 -35.5 -19.5 -121.5zt0 0zM271 566h-66l-104 124v30l121 0z" />
<glyph unicode="&#243;" horiz-adv-x="445" d="M25 250q0 133 52 198q52 65 145 65q100 0 149 -66q49 -66 49 -197q0 -134 -52 -198.5q-52 -64.5 -146 -64.5q-197 0 -197 263zt0 0zM148 250q0 -75 17 -116q17 -41 57 -41q38 0 56.5 35.5q18.5 35.5 18.5 121.5q0 77 -17 117q-17 40 -58 40q-35 0 -54.5 -35.5q-19.5 -35.5 -19.5 -121.5zt0 0zM224 720h119v-30l-94 -124l-67 0z" />
<glyph unicode="&#244;" horiz-adv-x="445" d="M25 250q0 133 52 198q52 65 145 65q100 0 149 -66q49 -66 49 -197q0 -134 -52 -198.5q-52 -64.5 -146 -64.5q-197 0 -197 263zt0 0zM148 250q0 -75 17 -116q17 -41 57 -41q38 0 56.5 35.5q18.5 35.5 18.5 121.5q0 77 -17 117q-17 40 -58 40q-35 0 -54.5 -35.5q-19.5 -35.5 -19.5 -121.5zt0 0zM186 732h85l91 -182h-93l-32 66l-13 49l-13 -49l-37 -66l-89 0z" />
<glyph unicode="&#245;" horiz-adv-x="445" d="M25 250q0 133 52 198q52 65 145 65q100 0 149 -66q49 -66 49 -197q0 -134 -52 -198.5q-52 -64.5 -146 -64.5q-197 0 -197 263zt0 0zM148 250q0 -75 17 -116q17 -41 57 -41q38 0 56.5 35.5q18.5 35.5 18.5 121.5q0 77 -17 117q-17 40 -58 40q-35 0 -54.5 -35.5q-19.5 -35.5 -19.5 -121.5zt0 0zM73 656q29 37 54 50.5q25 13.5 46 13.5q18 0 33.5 -6.5q15.5 -6.5 30.5 -15q15 -8.5 30 -15q15 -6.5 30 -6.5q11 0 23 5q12 5 26 18l22 -61q-27 -32 -50.5 -44q-23.5 -12 -43.5 -12q-18 0 -33.5 6q-15.5 6 -30.5 13.5q-15 7.5 -30 14q-15 6.5 -30 6.5q-13 0 -26 -5.5q-13 -5.5 -27 -19.5z" />
<glyph unicode="&#246;" horiz-adv-x="445" d="M25 250q0 133 52 198q52 65 145 65q100 0 149 -66q49 -66 49 -197q0 -134 -52 -198.5q-52 -64.5 -146 -64.5q-197 0 -197 263zt0 0zM148 250q0 -75 17 -116q17 -41 57 -41q38 0 56.5 35.5q18.5 35.5 18.5 121.5q0 77 -17 117q-17 40 -58 40q-35 0 -54.5 -35.5q-19.5 -35.5 -19.5 -121.5zt0 0zM66 651q0 32 17.5 50q17.5 18 46.5 18q28 0 45 -18q17 -18 17 -50q0 -30 -17 -47.5q-17 -17.5 -45 -17.5q-29 0 -46.5 17.5q-17.5 17.5 -17.5 47.5zt0 0zM252 651q0 32 17 50q17 18 46 18q29 0 46 -18q17 -18 17 -50q0 -30 -17 -47.5q-17 -17.5 -46 -17.5q-29 0 -46 17.5t-17 47.5z" />
<glyph unicode="&#247;" horiz-adv-x="444" d="M38 393h368v-106h-368zM151 158q0 37 19.5 56q19.5 19 51.5 19q35 0 54 -19q19 -19 19 -56q0 -36 -19.5 -56q-19.5 -20 -53.5 -20q-33 0 -52 20q-19 20 -19 56zt0 0zM151 523q0 37 19.5 56q19.5 19 51.5 19q35 0 54 -19q19 -19 19 -56q0 -36 -19.5 -56q-19.5 -20 -53.5 -20q-33 0 -52 20t-19 56z" />
<glyph unicode="&#248;" horiz-adv-x="448" d="M62 78q-34 64 -34 172q0 134 52 199q52 65 146 65q49 0 87 -18l18 30l79 -49l-27 -46q40 -65 40 -181q0 -134 -51.5 -199q-51.5 -65 -145.5 -65q-28 0 -51 5.5q-23 5.5 -43 15.5l-19 -31l-81 51zM179 114q18 -22 47 -22q38 0 57 35q19 35 19 123q0 19 -1 35.5q-1 16.5 -3 31.5zM269 390q-17 18 -43 18q-37 0 -57 -36q-20 -36 -20 -122q0 -33 3 -60z" />
<glyph unicode="&#249;" horiz-adv-x="446" d="M158 500v-299q0 -59 11 -82q11 -23 40 -23q28 0 47 20.5q19 20.5 27 49.5l0 334h119v-348q0 -41 3 -80.5q3 -39.5 11 -71.5l-90 0l-21 68h-3q-19 -35 -51.5 -58q-32.5 -23 -80.5 -23q-31 0 -55 8.5q-24 8.5 -41 29.5q-17 21 -26 57.5q-9 36.5 -9 92.5v325zM265 566h-66l-104 124v30l121 0z" />
<glyph unicode="&#250;" horiz-adv-x="446" d="M158 500v-299q0 -59 11 -82q11 -23 40 -23q28 0 47 20.5q19 20.5 27 49.5l0 334h119v-348q0 -41 3 -80.5q3 -39.5 11 -71.5l-90 0l-21 68h-3q-19 -35 -51.5 -58q-32.5 -23 -80.5 -23q-31 0 -55 8.5q-24 8.5 -41 29.5q-17 21 -26 57.5q-9 36.5 -9 92.5v325zM212 720h119v-30l-94 -124l-67 0z" />
<glyph unicode="&#251;" horiz-adv-x="446" d="M158 500v-299q0 -59 11 -82q11 -23 40 -23q28 0 47 20.5q19 20.5 27 49.5l0 334h119v-348q0 -41 3 -80.5q3 -39.5 11 -71.5l-90 0l-21 68h-3q-19 -35 -51.5 -58q-32.5 -23 -80.5 -23q-31 0 -55 8.5q-24 8.5 -41 29.5q-17 21 -26 57.5q-9 36.5 -9 92.5v325zM184 732h85l91 -182h-93l-32 66l-13 49l-13 -49l-37 -66l-89 0z" />
<glyph unicode="&#252;" horiz-adv-x="446" d="M158 500v-299q0 -59 11 -82q11 -23 40 -23q28 0 47 20.5q19 20.5 27 49.5l0 334h119v-348q0 -41 3 -80.5q3 -39.5 11 -71.5l-90 0l-21 68h-3q-19 -35 -51.5 -58q-32.5 -23 -80.5 -23q-31 0 -55 8.5q-24 8.5 -41 29.5q-17 21 -26 57.5q-9 36.5 -9 92.5v325zM63 651q0 32 17.5 50q17.5 18 46.5 18q28 0 45 -18q17 -18 17 -50q0 -30 -17 -47.5q-17 -17.5 -45 -17.5q-29 0 -46.5 17.5q-17.5 17.5 -17.5 47.5zt0 0zM249 651q0 32 17 50q17 18 46 18q29 0 46 -18q17 -18 17 -50q0 -30 -17 -47.5q-17 -17.5 -46 -17.5q-29 0 -46 17.5t-17 47.5z" />
<glyph unicode="&#253;" horiz-adv-x="400" d="M203 219l13 -78h5l9 79l58 280h122l-125 -451q-17 -59 -32 -106q-15 -47 -32 -80q-17 -33 -38.5 -50.5q-21.5 -17.5 -51.5 -17.5q-21 0 -40.5 3.5q-19.5 3.5 -33.5 11.5l20 102q13 -5 26.5 -4.5q13.5 0.5 25 10q11.5 9.5 20.5 29.5q9 20 15 53l-174 500h143zM205 720h119v-30l-94 -124l-67 0z" />
<glyph unicode="&#254;" horiz-adv-x="446" d="M43 700h119v-237h3q17 23 41.5 37q24.5 14 62.5 14q76 0 114 -59.5q38 -59.5 38 -191.5q0 -64 -12 -115.5q-12 -51.5 -35.5 -87.5q-23.5 -36 -58.5 -55q-35 -19 -81 -19q-24 0 -41 4q-17 4 -31 12l0 -202h-119zM230 408q-26 0 -42.5 -15q-16.5 -15 -25.5 -42l0 -240q10 -9 22.5 -14q12.5 -5 33.5 -5q40 0 60 39.5q20 39.5 20 134.5q0 70 -15.5 106t-52.5 36z" />
<glyph unicode="&#255;" horiz-adv-x="400" d="M203 219l13 -78h5l9 79l58 280h122l-125 -451q-17 -59 -32 -106q-15 -47 -32 -80q-17 -33 -38.5 -50.5q-21.5 -17.5 -51.5 -17.5q-21 0 -40.5 3.5q-19.5 3.5 -33.5 11.5l20 102q13 -5 26.5 -4.5q13.5 0.5 25 10q11.5 9.5 20.5 29.5q9 20 15 53l-174 500h143zM47 651q0 32 17.5 50q17.5 18 46.5 18q28 0 45 -18q17 -18 17 -50q0 -30 -17 -47.5q-17 -17.5 -45 -17.5q-29 0 -46.5 17.5q-17.5 17.5 -17.5 47.5zt0 0zM233 651q0 32 17 50q17 18 46 18q29 0 46 -18q17 -18 17 -50q0 -30 -17 -47.5q-17 -17.5 -46 -17.5q-29 0 -46 17.5t-17 47.5z" />
<glyph unicode="&#256;" horiz-adv-x="501" d="M328 158h-165l-41 -158h-125l203 705h99l204 -705h-132zM190 262h116l-40 163l-16 110h-4l-17 -111zM105 856h289v-89l-289 0z" />
<glyph unicode="&#257;" horiz-adv-x="413" d="M44 470q30 18 75 29q45 11 102 11q85 0 118.5 -44q33.5 -44 33.5 -125q0 -47 -2.5 -92.5q-2.5 -45.5 -3.5 -89q-1 -43.5 1.5 -84q2.5 -40.5 13.5 -76.5l-97 0l-19 61h-4q-16 -29 -45 -48q-29 -19 -73 -19q-59 0 -93 39.5q-34 39.5 -34 105.5q0 90 64 128q64 38 173 32q5 58 -7.5 84q-12.5 26 -53.5 26q-30 0 -62 -7q-32 -7 -57 -20zM187 95q27 0 44 13.5q17 13.5 25 29.5l0 83q-23 3 -44 1q-21 -2 -37 -9q-16 -7 -25.5 -20.5q-9.5 -13.5 -9.5 -34.5q0 -31 12.5 -47q12.5 -16 34.5 -16zt0 0zM72 658h272v-91l-272 0z" />
<glyph unicode="&#258;" horiz-adv-x="501" d="M328 158h-165l-41 -158h-125l203 705h99l204 -705h-132zM190 262h116l-40 163l-16 110h-4l-17 -111zM135 875q17 -26 49 -40.5q32 -14.5 70 -14.5q40 0 68.5 15q28.5 15 45.5 40l44 -31q-11 -30 -28 -51.5q-17 -21.5 -38.5 -35.5q-21.5 -14 -45 -20.5q-23.5 -6.5 -47.5 -6.5q-22 0 -45.5 6q-23.5 6 -46 19q-22.5 13 -41.5 34q-19 21 -31 51z" />
<glyph unicode="&#259;" horiz-adv-x="413" d="M44 470q30 18 75 29q45 11 102 11q85 0 118.5 -44q33.5 -44 33.5 -125q0 -47 -2.5 -92.5q-2.5 -45.5 -3.5 -89q-1 -43.5 1.5 -84q2.5 -40.5 13.5 -76.5l-97 0l-19 61h-4q-16 -29 -45 -48q-29 -19 -73 -19q-59 0 -93 39.5q-34 39.5 -34 105.5q0 90 64 128q64 38 173 32q5 58 -7.5 84q-12.5 26 -53.5 26q-30 0 -62 -7q-32 -7 -57 -20zM187 95q27 0 44 13.5q17 13.5 25 29.5l0 83q-23 3 -44 1q-21 -2 -37 -9q-16 -7 -25.5 -20.5q-9.5 -13.5 -9.5 -34.5q0 -31 12.5 -47q12.5 -16 34.5 -16zt0 0zM118 719q14 -30 39 -45q25 -15 54 -15q29 0 52 15q23 15 34 45l55 -26q-2 -26 -13.5 -49q-11.5 -23 -30 -41q-18.5 -18 -43.5 -28.5q-25 -10.5 -55 -10.5q-57 0 -97 33q-40 33 -51 92z" />
<glyph unicode="&#260;" horiz-adv-x="501" d="M190 262h116l-40 163l-16 110h-4l-17 -111zM328 158h-165l-41 -158h-125l203 705h99l204 -705h-19q-47 -23 -47 -73q0 -25 17.5 -37.5q17.5 -12.5 49.5 2.5l18 -58q-6 -6 -16 -12q-10 -6 -23 -11q-13 -5 -28.5 -8.5q-15.5 -3.5 -30.5 -3.5q-51 0 -77 25q-26 25 -26 65q0 42 25 71q20 24 51 40l-26 0z" />
<glyph unicode="&#261;" horiz-adv-x="413" d="M44 470q30 18 75 29q45 11 102 11q85 0 118.5 -44q33.5 -44 33.5 -125q0 -47 -2.5 -92.5q-2.5 -45.5 -3.5 -89q-1 -43.5 1.5 -84q2.5 -40.5 13.5 -76.5l-20 0q-45 -24 -45 -72q0 -25 17.5 -37.5q17.5 -12.5 49.5 2.5l18 -58q-6 -6 -16 -12q-10 -6 -23 -11q-13 -5 -28.5 -8.5q-15.5 -3.5 -30.5 -3.5q-51 0 -77 25q-26 25 -26 65q0 40 23 68.5q23 28.5 59 45.5l-17 57h-4q-16 -29 -45 -48q-29 -19 -73 -19q-59 0 -93 39.5q-34 39.5 -34 105.5q0 90 64 128q64 38 173 32q5 58 -7.5 84q-12.5 26 -53.5 26q-30 0 -62 -7q-32 -7 -57 -20zM187 95q27 0 44 13.5q17 13.5 25 29.5l0 83q-23 3 -44 1q-21 -2 -37 -9q-16 -7 -25.5 -20.5q-9.5 -13.5 -9.5 -34.5q0 -31 12.5 -47t34.5 -16z" />
<glyph unicode="&#262;" horiz-adv-x="457" d="M442 28q-26 -22 -69.5 -32q-43.5 -10 -86.5 -10q-54 0 -100.5 18.5q-46.5 18.5 -81.5 61.5q-35 43 -55 113q-20 70 -20 172q0 106 22.5 176q22.5 70 59 111.5q36.5 41.5 83.5 58.5q47 17 95 17q49 0 85.5 -8q36.5 -8 59.5 -18l-25 -111q-19 10 -44.5 15.5q-25.5 5.5 -60.5 5.5q-69 0 -106 -60q-37 -60 -37 -188q0 -55 8.5 -100.5q8.5 -45.5 27 -78.5q18.5 -33 47 -51q28.5 -18 68.5 -18q35 0 60 9.5q25 9.5 45 22.5zM305 870h143v-30l-132 -88l-93 0z" />
<glyph unicode="&#263;" horiz-adv-x="350" d="M338 27q-25 -20 -60 -30q-35 -10 -70 -10q-51 0 -85.5 18.5q-34.5 18.5 -56.5 53q-22 34.5 -31.5 83q-9.5 48.5 -9.5 108.5q0 131 47 197q47 66 138 66q45 0 73.5 -8q28.5 -8 50.5 -20l-28 -99q-18 9 -34.5 13.5q-16.5 4.5 -39.5 4.5q-42 0 -63 -36.5q-21 -36.5 -21 -117.5q0 -68 21.5 -111q21.5 -43 68.5 -43q25 0 42.5 6.5q17.5 6.5 32.5 16.5zM204 720h119v-30l-94 -124l-67 0z" />
<glyph unicode="&#264;" horiz-adv-x="457" d="M442 28q-26 -22 -69.5 -32q-43.5 -10 -86.5 -10q-54 0 -100.5 18.5q-46.5 18.5 -81.5 61.5q-35 43 -55 113q-20 70 -20 172q0 106 22.5 176q22.5 70 59 111.5q36.5 41.5 83.5 58.5q47 17 95 17q49 0 85.5 -8q36.5 -8 59.5 -18l-25 -111q-19 10 -44.5 15.5q-25.5 5.5 -60.5 5.5q-69 0 -106 -60q-37 -60 -37 -188q0 -55 8.5 -100.5q8.5 -45.5 27 -78.5q18.5 -33 47 -51q28.5 -18 68.5 -18q35 0 60 9.5q25 9.5 45 22.5zM240 870h87l104 -93v-39h-85l-47 41l-17 34l-18 -33l-50 -42h-83l0 40z" />
<glyph unicode="&#265;" horiz-adv-x="350" d="M338 27q-25 -20 -60 -30q-35 -10 -70 -10q-51 0 -85.5 18.5q-34.5 18.5 -56.5 53q-22 34.5 -31.5 83q-9.5 48.5 -9.5 108.5q0 131 47 197q47 66 138 66q45 0 73.5 -8q28.5 -8 50.5 -20l-28 -99q-18 9 -34.5 13.5q-16.5 4.5 -39.5 4.5q-42 0 -63 -36.5q-21 -36.5 -21 -117.5q0 -68 21.5 -111q21.5 -43 68.5 -43q25 0 42.5 6.5q17.5 6.5 32.5 16.5zM138 732h85l91 -182h-93l-32 66l-13 49l-13 -49l-37 -66l-89 0z" />
<glyph unicode="&#268;" horiz-adv-x="457" d="M442 28q-26 -22 -69.5 -32q-43.5 -10 -86.5 -10q-54 0 -100.5 18.5q-46.5 18.5 -81.5 61.5q-35 43 -55 113q-20 70 -20 172q0 106 22.5 176q22.5 70 59 111.5q36.5 41.5 83.5 58.5q47 17 95 17q49 0 85.5 -8q36.5 -8 59.5 -18l-25 -111q-19 10 -44.5 15.5q-25.5 5.5 -60.5 5.5q-69 0 -106 -60q-37 -60 -37 -188q0 -55 8.5 -100.5q8.5 -45.5 27 -78.5q18.5 -33 47 -51q28.5 -18 68.5 -18q35 0 60 9.5q25 9.5 45 22.5zM322 737h-87l-104 94v39h91l42 -45l17 -30l17 29l45 46h88l0 -40z" />
<glyph unicode="&#269;" horiz-adv-x="350" d="M338 27q-25 -20 -60 -30q-35 -10 -70 -10q-51 0 -85.5 18.5q-34.5 18.5 -56.5 53q-22 34.5 -31.5 83q-9.5 48.5 -9.5 108.5q0 131 47 197q47 66 138 66q45 0 73.5 -8q28.5 -8 50.5 -20l-28 -99q-18 9 -34.5 13.5q-16.5 4.5 -39.5 4.5q-42 0 -63 -36.5q-21 -36.5 -21 -117.5q0 -68 21.5 -111q21.5 -43 68.5 -43q25 0 42.5 6.5q17.5 6.5 32.5 16.5zM243 550h-88l-95 182h98l32 -66l13 -49l13 49l37 66l91 0z" />
<glyph unicode="&#270;" horiz-adv-x="535" d="M45 700q18 3 40.5 4.5q22.5 1.5 46 3q23.5 1.5 45.5 2q22 0.5 39 0.5q83 0 138.5 -25.5q55.5 -25.5 89 -72q33.5 -46.5 47.5 -111.5q14 -65 14 -145q0 -73 -13.5 -139.5q-13.5 -66.5 -47.5 -117q-34 -50.5 -92 -80.5q-58 -30 -146 -30q-13 0 -35 1q-22 1 -46 2.5q-24 1.5 -46 3q-22 1.5 -34 3.5zM229 594q-16 0 -32.5 -0.5q-16.5 -0.5 -25.5 -2.5l0 -482q3 -1 10.5 -1.5q7.5 -0.5 16 -1q8.5 -0.5 16 -1q7.5 -0.5 10.5 -0.5q45 0 74 21q29 21 45.5 56q16.5 35 23 80.5q6.5 45.5 6.5 95.5q0 46 -5.5 89q-5.5 43 -21 75.5q-15.5 32.5 -44 52q-28.5 19.5 -73.5 19.5zt0 0zM270 737h-87l-104 94v39h91l42 -45l17 -30l17 29l45 46h88l0 -40z" />
<glyph unicode="&#271;" horiz-adv-x="445" d="M402 176q0 -42 1 -84q1 -42 8 -93l-84 0l-16 58h-4q-34 -70 -119 -70q-76 0 -119.5 60q-43.5 60 -43.5 195q0 132 47 200.5q47 68.5 140 68.5q24 0 40 -3q16 -3 31 -10l0 202h119zM216 96q27 0 43 13.5q16 13.5 24 39.5l0 236q-10 9 -22.5 13q-12.5 4 -32.5 4q-40 0 -60 -36q-20 -36 -20 -128q0 -69 16.5 -105.5q16.5 -36.5 51.5 -36.5zt0 0zM556 700q-2 -29 -10.5 -60.5q-8.5 -31.5 -20.5 -59.5q-12 -28 -25.5 -50q-13.5 -22 -23.5 -32l-53 26q14 36 21.5 83q7.5 47 7.5 93z" />
<glyph unicode="&#272;" horiz-adv-x="555" d="M-3 401h68v299q18 3 40.5 4.5q22.5 1.5 46 3q23.5 1.5 45.5 2q22 0.5 39 0.5q83 0 138.5 -25.5q55.5 -25.5 89 -72q33.5 -46.5 47.5 -111.5q14 -65 14 -145q0 -73 -13.5 -139.5q-13.5 -66.5 -47.5 -117q-34 -50.5 -92 -80.5q-58 -30 -146 -30q-13 0 -35 1q-22 1 -46 2.5q-24 1.5 -46 3q-22 1.5 -34 3.5l0 323h-68zM191 401h108v-79h-108v-213q3 -1 10.5 -1.5q7.5 -0.5 16 -1q8.5 -0.5 16 -1q7.5 -0.5 10.5 -0.5q45 0 74 21q29 21 45.5 56q16.5 35 23 80.5q6.5 45.5 6.5 95.5q0 46 -5.5 89q-5.5 43 -21 75.5q-15.5 32.5 -44 52q-28.5 19.5 -73.5 19.5q-16 0 -32.5 -0.5q-16.5 -0.5 -25.5 -2.5z" />
<glyph unicode="&#273;" horiz-adv-x="452" d="M402 641h61v-79h-61v-386q0 -42 1 -84q1 -42 8 -93l-84 0l-16 58h-4q-34 -70 -119 -70q-76 0 -119.5 60q-43.5 60 -43.5 195q0 132 47 200.5q47 68.5 140 68.5q24 0 40 -3q16 -3 31 -10l0 64h-120v79h120v59h119zM216 96q27 0 43 13.5q16 13.5 24 39.5l0 236q-10 9 -22.5 13q-12.5 4 -32.5 4q-40 0 -60 -36q-20 -36 -20 -128q0 -69 16.5 -105.5t51.5 -36.5z" />
<glyph unicode="&#274;" horiz-adv-x="430" d="M45 700h350v-116h-224v-172h203v-116h-203v-180h228v-116h-354zM74 856h289v-89l-289 0z" />
<glyph unicode="&#275;" horiz-adv-x="428" d="M381 37q-25 -22 -68 -36q-43 -14 -90 -14q-52 0 -89.5 18q-37.5 18 -61.5 52q-24 34 -35.5 82.5q-11.5 48.5 -11.5 110.5q0 135 53.5 199.5q53.5 64.5 148.5 64.5q32 0 62 -9.5q30 -9.5 53.5 -32q23.5 -22.5 38 -60q14.5 -37.5 14.5 -94.5q0 -22 -2.5 -47q-2.5 -25 -7.5 -54l-243 0q2 -62 26 -95q24 -33 77 -33q32 0 58.5 10q26.5 10 40.5 21zM225 412q-38 0 -57 -30.5q-19 -30.5 -22 -85.5l138 0q3 57 -12 86.5q-15 29.5 -47 29.5zt0 0zM79 658h272v-91l-272 0z" />
<glyph unicode="&#278;" horiz-adv-x="430" d="M45 700h350v-116h-224v-172h203v-116h-203v-180h228v-116h-354zM149 799q0 25 19.5 43q19.5 18 57.5 18q39 0 59 -18q20 -18 20 -43q0 -26 -20 -44q-20 -18 -59 -18q-38 0 -57.5 18t-19.5 44z" />
<glyph unicode="&#279;" horiz-adv-x="428" d="M381 37q-25 -22 -68 -36q-43 -14 -90 -14q-52 0 -89.5 18q-37.5 18 -61.5 52q-24 34 -35.5 82.5q-11.5 48.5 -11.5 110.5q0 135 53.5 199.5q53.5 64.5 148.5 64.5q32 0 62 -9.5q30 -9.5 53.5 -32q23.5 -22.5 38 -60q14.5 -37.5 14.5 -94.5q0 -22 -2.5 -47q-2.5 -25 -7.5 -54l-243 0q2 -62 26 -95q24 -33 77 -33q32 0 58.5 10q26.5 10 40.5 21zM225 412q-38 0 -57 -30.5q-19 -30.5 -22 -85.5l138 0q3 57 -12 86.5q-15 29.5 -47 29.5zt0 0zM146 641q0 30 19 49.5q19 19.5 54 19.5q35 0 56 -19q21 -19 21 -50q0 -31 -21 -49q-21 -18 -56 -18q-35 0 -54 18.5t-19 48.5z" />
<glyph unicode="&#280;" horiz-adv-x="430" d="M45 700h350v-116h-224v-172h203v-116h-203v-180h228v-116h-24q-47 -22 -47 -73q0 -25 17.5 -37.5q17.5 -12.5 49.5 2.5l18 -58q-6 -6 -16 -12q-10 -6 -23 -11q-13 -5 -28.5 -8.5q-15.5 -3.5 -30.5 -3.5q-51 0 -77 25q-26 25 -26 65q0 38 21 66q21 28 55 45l-243 0z" />
<glyph unicode="&#281;" horiz-adv-x="421" d="M225 412q-38 0 -57 -30.5q-19 -30.5 -22 -85.5l138 0q3 57 -12 86.5q-15 29.5 -47 29.5zt0 0zM381 37q-21 -19 -54 -31q-14 -10 -24 -24q-18 -24 -17 -51q0 -13 5 -23.5q5 -10.5 14.5 -16.5q9.5 -6 22.5 -5q13 1 29 10l18 -62q-12 -12 -40.5 -24q-28.5 -12 -60.5 -12q-48 0 -73.5 27.5q-25.5 27.5 -25.5 66.5q0 47 29 80q7 8 15 15q-50 1 -86 18q-37 18 -61 52q-24 34 -35.5 82.5q-11.5 48.5 -11.5 110.5q0 135 53.5 199.5q53.5 64.5 148.5 64.5q32 0 62 -9.5q30 -9.5 53.5 -32q23.5 -22.5 38 -60q14.5 -37.5 14.5 -94.5q0 -22 -2.5 -47q-2.5 -25 -7.5 -54l-243 0q2 -62 26 -95q24 -33 77 -33q32 0 58.5 10q26.5 10 40.5 21z" />
<glyph unicode="&#282;" horiz-adv-x="430" d="M45 700h350v-116h-224v-172h203v-116h-203v-180h228v-116h-354zM260 737h-87l-104 94v39h91l42 -45l17 -30l17 29l45 46h88l0 -40z" />
<glyph unicode="&#283;" horiz-adv-x="428" d="M381 37q-25 -22 -68 -36q-43 -14 -90 -14q-52 0 -89.5 18q-37.5 18 -61.5 52q-24 34 -35.5 82.5q-11.5 48.5 -11.5 110.5q0 135 53.5 199.5q53.5 64.5 148.5 64.5q32 0 62 -9.5q30 -9.5 53.5 -32q23.5 -22.5 38 -60q14.5 -37.5 14.5 -94.5q0 -22 -2.5 -47q-2.5 -25 -7.5 -54l-243 0q2 -62 26 -95q24 -33 77 -33q32 0 58.5 10q26.5 10 40.5 21zM225 412q-38 0 -57 -30.5q-19 -30.5 -22 -85.5l138 0q3 57 -12 86.5q-15 29.5 -47 29.5zt0 0zM260 550h-88l-95 182h98l32 -66l13 -49l13 49l37 66l91 0z" />
<glyph unicode="&#284;" horiz-adv-x="502" d="M257 362h216v-310q-37 -35 -86.5 -50.5q-49.5 -15.5 -98.5 -15.5q-59 0 -107 21q-48 21 -81.5 65.5q-33.5 44.5 -52 113q-18.5 68.5 -18.5 164.5q0 100 22 169q22 69 58.5 112.5q36.5 43.5 85 63q48.5 19.5 102.5 19.5q48 0 87.5 -8.5q39.5 -8.5 65.5 -19.5v-109q-46 9 -72.5 15q-26.5 6 -64.5 6q-35 0 -63.5 -14q-28.5 -14 -48 -44q-19.5 -30 -30 -77.5q-10.5 -47.5 -10.5 -113.5q0 -127 38.5 -187q38.5 -60 101.5 -60q20 0 38.5 6q18.5 6 32.5 19l0 143l-115 16zM224 870h87l104 -93v-39h-85l-47 41l-17 34l-18 -33l-50 -42h-83l0 40z" />
<glyph unicode="&#285;" horiz-adv-x="443" d="M401 0q0 -109 -50 -160.5q-50 -51.5 -139 -51.5q-62 0 -97 9.5q-35 9.5 -54 20.5l25 101q22 -9 47.5 -17q25.5 -8 60.5 -8q51 0 70.5 27.5q19.5 27.5 19.5 83.5v27h-3q-14 -20 -37.5 -30q-23.5 -10 -60.5 -10q-79 0 -118.5 59.5q-39.5 59.5 -39.5 188.5q0 139 54.5 205q54.5 66 155.5 66q54 0 97 -8.5q43 -8.5 69 -20.5zM216 94q27 0 42.5 13q15.5 13 23.5 37l0 250q-11 5 -24.5 8q-13.5 3 -31.5 3q-37 0 -57.5 -36q-20.5 -36 -20.5 -124q0 -151 68 -151zt0 0zM184 732h85l91 -182h-93l-32 66l-13 49l-13 -49l-37 -66l-89 0z" />
<glyph unicode="&#286;" horiz-adv-x="502" d="M257 362h216v-310q-37 -35 -86.5 -50.5q-49.5 -15.5 -98.5 -15.5q-59 0 -107 21q-48 21 -81.5 65.5q-33.5 44.5 -52 113q-18.5 68.5 -18.5 164.5q0 100 22 169q22 69 58.5 112.5q36.5 43.5 85 63q48.5 19.5 102.5 19.5q48 0 87.5 -8.5q39.5 -8.5 65.5 -19.5v-109q-46 9 -72.5 15q-26.5 6 -64.5 6q-35 0 -63.5 -14q-28.5 -14 -48 -44q-19.5 -30 -30 -77.5q-10.5 -47.5 -10.5 -113.5q0 -127 38.5 -187q38.5 -60 101.5 -60q20 0 38.5 6q18.5 6 32.5 19l0 143l-115 16zM161 875q17 -26 49 -40.5q32 -14.5 70 -14.5q40 0 68.5 15q28.5 15 45.5 40l44 -31q-11 -30 -28 -51.5q-17 -21.5 -38.5 -35.5q-21.5 -14 -45 -20.5q-23.5 -6.5 -47.5 -6.5q-22 0 -45.5 6q-23.5 6 -46 19q-22.5 13 -41.5 34q-19 21 -31 51z" />
<glyph unicode="&#287;" horiz-adv-x="443" d="M401 0q0 -109 -50 -160.5q-50 -51.5 -139 -51.5q-62 0 -97 9.5q-35 9.5 -54 20.5l25 101q22 -9 47.5 -17q25.5 -8 60.5 -8q51 0 70.5 27.5q19.5 27.5 19.5 83.5v27h-3q-14 -20 -37.5 -30q-23.5 -10 -60.5 -10q-79 0 -118.5 59.5q-39.5 59.5 -39.5 188.5q0 139 54.5 205q54.5 66 155.5 66q54 0 97 -8.5q43 -8.5 69 -20.5zM216 94q27 0 42.5 13q15.5 13 23.5 37l0 250q-11 5 -24.5 8q-13.5 3 -31.5 3q-37 0 -57.5 -36q-20.5 -36 -20.5 -124q0 -151 68 -151zt0 0zM134 719q14 -30 39 -45q25 -15 54 -15q29 0 52 15q23 15 34 45l55 -26q-2 -26 -13.5 -49q-11.5 -23 -30 -41q-18.5 -18 -43.5 -28.5q-25 -10.5 -55 -10.5q-57 0 -97 33q-40 33 -51 92z" />
<glyph unicode="&#290;" horiz-adv-x="502" d="M257 362h216v-310q-37 -35 -86.5 -50.5q-49.5 -15.5 -98.5 -15.5q-59 0 -107 21q-48 21 -81.5 65.5q-33.5 44.5 -52 113q-18.5 68.5 -18.5 164.5q0 100 22 169q22 69 58.5 112.5q36.5 43.5 85 63q48.5 19.5 102.5 19.5q48 0 87.5 -8.5q39.5 -8.5 65.5 -19.5v-109q-46 9 -72.5 15q-26.5 6 -64.5 6q-35 0 -63.5 -14q-28.5 -14 -48 -44q-19.5 -30 -30 -77.5q-10.5 -47.5 -10.5 -113.5q0 -127 38.5 -187q38.5 -60 101.5 -60q20 0 38.5 6q18.5 6 32.5 19l0 143l-115 16zM237 -106q0 29 18 46.5q18 17.5 44 17.5q31 0 50.5 -22q19.5 -22 19.5 -67q0 -33 -10 -58q-10 -25 -24.5 -42q-14.5 -17 -30 -27.5q-15.5 -10.5 -27.5 -14.5l-33 46q13 8 25 23.5q12 15.5 14 37.5q-15 1 -30.5 15t-15.5 45z" />
<glyph unicode="&#291;" horiz-adv-x="443" d="M401 0q0 -109 -50 -160.5q-50 -51.5 -139 -51.5q-62 0 -97 9.5q-35 9.5 -54 20.5l25 101q22 -9 47.5 -17q25.5 -8 60.5 -8q51 0 70.5 27.5q19.5 27.5 19.5 83.5v27h-3q-14 -20 -37.5 -30q-23.5 -10 -60.5 -10q-79 0 -118.5 59.5q-39.5 59.5 -39.5 188.5q0 139 54.5 205q54.5 66 155.5 66q54 0 97 -8.5q43 -8.5 69 -20.5zM216 94q27 0 42.5 13q15.5 13 23.5 37l0 250q-11 5 -24.5 8q-13.5 3 -31.5 3q-37 0 -57.5 -36q-20.5 -36 -20.5 -124q0 -151 68 -151zt0 0zM303 615q0 -29 -18 -46.5q-18 -17.5 -44 -17.5q-31 0 -50.5 22q-19.5 22 -19.5 67q0 33 10 58q10 25 24.5 42q14.5 17 30 27.5q15.5 10.5 27.5 14.5l33 -46q-13 -8 -25 -23.5q-12 -15.5 -14 -37.5q15 -1 30.5 -15t15.5 -45z" />
<glyph unicode="&#292;" horiz-adv-x="533" d="M362 296h-191v-296h-126v700h126v-288h191v288h126v-700h-126zM232 870h87l104 -93v-39h-85l-47 41l-17 34l-18 -33l-50 -42h-83l0 40z" />
<glyph unicode="&#293;" horiz-adv-x="449" d="M291 0v302q0 54 -12.5 78q-12.5 24 -45.5 24q-24 0 -44 -17q-20 -17 -27 -43l0 -344h-119v700h119v-245h3q20 26 48.5 42q28.5 16 71.5 16q31 0 54 -9q23 -9 39 -30q16 -21 24 -56.5q8 -35.5 8 -89.5v-328zM69 870h87l104 -93v-39h-85l-47 41l-17 34l-18 -33l-50 -42h-83l0 40z" />
<glyph unicode="&#294;" horiz-adv-x="567" d="M2 596h61v104h126v-104h191v104h126v-104h59v-78h-59v-518h-126v296h-191v-296h-126v518h-61zM380 412v106h-191l0 -106z" />
<glyph unicode="&#295;" horiz-adv-x="456" d="M-9 641h59v59h119v-59h133v-79h-133v-107h3q20 26 48.5 42q28.5 16 71.5 16q31 0 54 -9q23 -9 39 -30q16 -21 24 -56.5q8 -35.5 8 -89.5v-328h-119v302q0 54 -12.5 78q-12.5 24 -45.5 24q-24 0 -44 -17q-20 -17 -27 -43l0 -344h-119v562l-59 0z" />
<glyph unicode="&#298;" horiz-adv-x="238" d="M56 700h126v-700h-126zM-23 856h289v-89l-289 0z" />
<glyph unicode="&#299;" horiz-adv-x="225" d="M53 500h119v-500h-119zM-25 658h272v-91l-272 0z" />
<glyph unicode="&#302;" horiz-adv-x="238" d="M56 700h126v-700h-12q-17 -12 -27.5 -29.5q-10.5 -17.5 -10.5 -43.5q0 -26 17.5 -38.5q17.5 -12.5 49.5 3.5l18 -59q-12 -11 -40 -23q-28 -12 -60 -12q-49 0 -75 25q-26 25 -26 66q0 38 19.5 66q19.5 28 53.5 45l-33 0z" />
<glyph unicode="&#303;" horiz-adv-x="223" d="M53 500h119v-500h-11q-18 -14 -29 -32q-11 -18 -10 -41q0 -26 20 -38.5q20 -12.5 51 7.5l18 -62q-12 -12 -40.5 -24q-28.5 -12 -60.5 -12q-49 0 -74 25.5q-25 25.5 -25 66.5q0 38 19 65.5q19 27.5 53 44.5l-30 0zM37 641q0 30 19 49.5q19 19.5 54 19.5q35 0 56 -19q21 -19 21 -50q0 -31 -21 -49q-21 -18 -56 -18q-35 0 -54 18.5t-19 48.5z" />
<glyph unicode="&#304;" horiz-adv-x="238" d="M56 700h126v-700h-126zM41 799q0 25 19.5 43q19.5 18 57.5 18q39 0 59 -18q20 -18 20 -43q0 -26 -20 -44q-20 -18 -59 -18q-38 0 -57.5 18t-19.5 44z" />
<glyph unicode="&#305;" horiz-adv-x="225" d="M53 500h119v-500l-119 0z" />
<glyph unicode="&#308;" horiz-adv-x="289" d="M113 700h126v-509q0 -46 -7.5 -83.5q-7.5 -37.5 -24.5 -64q-17 -26.5 -45 -41q-28 -14.5 -70 -14.5q-29 0 -57.5 6q-28.5 6 -51.5 17l29 106q21 -13 49 -13q35 0 43.5 29.5q8.5 29.5 8.5 84.5zM130 870h87l104 -93v-39h-85l-47 41l-17 34l-18 -33l-50 -42h-83l0 40z" />
<glyph unicode="&#309;" horiz-adv-x="225" d="M54 500h119v-521q0 -91 -31.5 -139q-31.5 -48 -100.5 -48q-28 0 -57 7l0 106q43 -4 56.5 24.5q13.5 28.5 13.5 84.5zM75 732h85l91 -182h-93l-32 66l-13 49l-13 -49l-37 -66l-89 0z" />
<glyph unicode="&#310;" horiz-adv-x="519" d="M198 300h-27v-300h-126v700h126v-311l25 12l147 299h142l-160 -295l-47 -37l48 -38l185 -330h-154zM186 -106q0 29 18 46.5q18 17.5 44 17.5q31 0 50.5 -22q19.5 -22 19.5 -67q0 -33 -10 -58q-10 -25 -24.5 -42q-14.5 -17 -30 -27.5q-15.5 -10.5 -27.5 -14.5l-33 46q13 8 25 23.5q12 15.5 14 37.5q-15 1 -30.5 15t-15.5 45z" />
<glyph unicode="&#311;" horiz-adv-x="412" d="M190 207h-28v-207h-119v700h119v-413l24 14l83 199h129l-92 -198l-43 -34l47 -34l102 -234h-134zM144 -106q0 29 18 46.5q18 17.5 44 17.5q31 0 50.5 -22q19.5 -22 19.5 -67q0 -33 -10 -58q-10 -25 -24.5 -42q-14.5 -17 -30 -27.5q-15.5 -10.5 -27.5 -14.5l-33 46q13 8 25 23.5q12 15.5 14 37.5q-15 1 -30.5 15t-15.5 45z" />
<glyph unicode="&#313;" horiz-adv-x="424" d="M417 0h-372v700h126v-584h246zM157 870h143v-30l-132 -88l-93 0z" />
<glyph unicode="&#314;" horiz-adv-x="243" d="M164 162q0 -35 7 -50q7 -15 23 -15q9 0 18.5 2q9.5 2 21.5 7l11 -96q-12 -8 -41 -15q-29 -7 -59 -7q-50 0 -75 25q-25 25 -25 85v602h119zM136 870h143v-30l-132 -88l-93 0z" />
<glyph unicode="&#315;" horiz-adv-x="424" d="M417 0h-372v700h126v-584h246zM150 -106q0 29 18 46.5q18 17.5 44 17.5q31 0 50.5 -22q19.5 -22 19.5 -67q0 -33 -10 -58q-10 -25 -24.5 -42q-14.5 -17 -30 -27.5q-15.5 -10.5 -27.5 -14.5l-33 46q13 8 25 23.5q12 15.5 14 37.5q-15 1 -30.5 15t-15.5 45z" />
<glyph unicode="&#316;" horiz-adv-x="243" d="M164 162q0 -35 7 -50q7 -15 23 -15q9 0 18.5 2q9.5 2 21.5 7l11 -96q-12 -8 -41 -15q-29 -7 -59 -7q-50 0 -75 25q-25 25 -25 85v602h119zM76 -106q0 29 18 46.5q18 17.5 44 17.5q31 0 50.5 -22q19.5 -22 19.5 -67q0 -33 -10 -58q-10 -25 -24.5 -42q-14.5 -17 -30 -27.5q-15.5 -10.5 -27.5 -14.5l-33 46q13 8 25 23.5q12 15.5 14 37.5q-15 1 -30.5 15t-15.5 45z" />
<glyph unicode="&#317;" horiz-adv-x="424" d="M417 0h-372v700h126v-584h246zM397 700q-2 -29 -10.5 -60.5q-8.5 -31.5 -20.5 -59.5q-12 -28 -25.5 -50q-13.5 -22 -23.5 -32l-53 26q14 36 21.5 83q7.5 47 7.5 93z" />
<glyph unicode="&#318;" horiz-adv-x="243" d="M164 162q0 -35 7 -50q7 -15 23 -15q9 0 18.5 2q9.5 2 21.5 7l11 -96q-12 -8 -41 -15q-29 -7 -59 -7q-50 0 -75 25q-25 25 -25 85v602h119zM319 700q-2 -29 -10.5 -60.5q-8.5 -31.5 -20.5 -59.5q-12 -28 -25.5 -50q-13.5 -22 -23.5 -32l-53 26q14 36 21.5 83q7.5 47 7.5 93z" />
<glyph unicode="&#321;" horiz-adv-x="434" d="M3 320l52 40v340h126v-243l84 65v-126l-84 -64v-216h246v-116h-372v236l-52 -39z" />
<glyph unicode="&#322;" horiz-adv-x="267" d="M1 309l63 48v343h119v-251l80 62v-126l-80 -61v-162q0 -35 7 -50q7 -15 23 -15q9 0 18.5 2q9.5 2 21.5 7l11 -96q-12 -8 -41 -15q-29 -7 -59 -7q-50 0 -75 25q-25 25 -25 85v136l-63 -48z" />
<glyph unicode="&#323;" horiz-adv-x="540" d="M199 344l-46 123h-5l16 -121v-346h-119v705h97l201 -352l43 -121h6l-16 119v349h119v-705h-97zM303 870h143v-30l-132 -88l-93 0z" />
<glyph unicode="&#324;" horiz-adv-x="449" d="M291 0v304q0 55 -13 77q-13 22 -44 22q-26 0 -45 -16q-19 -16 -27 -40l0 -347h-119v500h95l14 -58h3q18 29 49 49.5q31 20.5 81 20.5q30 0 53.5 -9q23.5 -9 39.5 -29.5q16 -20.5 24 -55q8 -34.5 8 -85.5v-333zM226 720h119v-30l-94 -124l-67 0z" />
<glyph unicode="&#325;" horiz-adv-x="540" d="M199 344l-46 123h-5l16 -121v-346h-119v705h97l201 -352l43 -121h6l-16 119v349h119v-705h-97zM214 -106q0 29 18 46.5q18 17.5 44 17.5q31 0 50.5 -22q19.5 -22 19.5 -67q0 -33 -10 -58q-10 -25 -24.5 -42q-14.5 -17 -30 -27.5q-15.5 -10.5 -27.5 -14.5l-33 46q13 8 25 23.5q12 15.5 14 37.5q-15 1 -30.5 15t-15.5 45z" />
<glyph unicode="&#326;" horiz-adv-x="449" d="M291 0v304q0 55 -13 77q-13 22 -44 22q-26 0 -45 -16q-19 -16 -27 -40l0 -347h-119v500h95l14 -58h3q18 29 49 49.5q31 20.5 81 20.5q30 0 53.5 -9q23.5 -9 39.5 -29.5q16 -20.5 24 -55q8 -34.5 8 -85.5v-333zM159 -106q0 29 18 46.5q18 17.5 44 17.5q31 0 50.5 -22q19.5 -22 19.5 -67q0 -33 -10 -58q-10 -25 -24.5 -42q-14.5 -17 -30 -27.5q-15.5 -10.5 -27.5 -14.5l-33 46q13 8 25 23.5q12 15.5 14 37.5q-15 1 -30.5 15t-15.5 45z" />
<glyph unicode="&#327;" horiz-adv-x="540" d="M199 344l-46 123h-5l16 -121v-346h-119v705h97l201 -352l43 -121h6l-16 119v349h119v-705h-97zM316 737h-87l-104 94v39h91l42 -45l17 -30l17 29l45 46h88l0 -40z" />
<glyph unicode="&#328;" horiz-adv-x="449" d="M291 0v304q0 55 -13 77q-13 22 -44 22q-26 0 -45 -16q-19 -16 -27 -40l0 -347h-119v500h95l14 -58h3q18 29 49 49.5q31 20.5 81 20.5q30 0 53.5 -9q23.5 -9 39.5 -29.5q16 -20.5 24 -55q8 -34.5 8 -85.5v-333zM268 550h-88l-95 182h98l32 -66l13 -49l13 49l37 66l91 0z" />
<glyph unicode="&#332;" horiz-adv-x="553" d="M29 350q0 178 61 271q61 93 186 93q65 0 112 -25.5q47 -25.5 77 -73q30 -47.5 44.5 -115q14.5 -67.5 14.5 -150.5q0 -178 -62.5 -271q-62.5 -93 -185.5 -93q-66 0 -112.5 25.5q-46.5 25.5 -76.5 73q-30 47.5 -44 115q-14 67.5 -14 150.5zt0 0zM161 350q0 -53 6 -98.5q6 -45.5 20 -78.5q14 -33 35.5 -52q21.5 -19 53.5 -19q58 0 87 59q29 59 29 189q0 51 -6 96.5q-6 45.5 -19.5 79q-13.5 33.5 -35.5 53q-22 19.5 -55 19.5q-115 0 -115 -248zt0 0zM134 856h289v-89l-289 0z" />
<glyph unicode="&#333;" horiz-adv-x="445" d="M25 250q0 133 52 198q52 65 145 65q100 0 149 -66q49 -66 49 -197q0 -134 -52 -198.5q-52 -64.5 -146 -64.5q-197 0 -197 263zt0 0zM148 250q0 -75 17 -116q17 -41 57 -41q38 0 56.5 35.5q18.5 35.5 18.5 121.5q0 77 -17 117q-17 40 -58 40q-35 0 -54.5 -35.5q-19.5 -35.5 -19.5 -121.5zt0 0zM85 658h272v-91l-272 0z" />
<glyph unicode="&#336;" horiz-adv-x="553" d="M29 350q0 178 61 271q61 93 186 93q65 0 112 -25.5q47 -25.5 77 -73q30 -47.5 44.5 -115q14.5 -67.5 14.5 -150.5q0 -178 -62.5 -271q-62.5 -93 -185.5 -93q-66 0 -112.5 25.5q-46.5 25.5 -76.5 73q-30 47.5 -44 115q-14 67.5 -14 150.5zt0 0zM161 350q0 -53 6 -98.5q6 -45.5 20 -78.5q14 -33 35.5 -52q21.5 -19 53.5 -19q58 0 87 59q29 59 29 189q0 51 -6 96.5q-6 45.5 -19.5 79q-13.5 33.5 -35.5 53q-22 19.5 -55 19.5q-115 0 -115 -248zt0 0zM197 850h120v-16l-82 -93h-86zM369 850h125v-16l-118 -93l-86 0z" />
<glyph unicode="&#337;" horiz-adv-x="445" d="M25 250q0 133 52 198q52 65 145 65q100 0 149 -66q49 -66 49 -197q0 -134 -52 -198.5q-52 -64.5 -146 -64.5q-197 0 -197 263zt0 0zM148 250q0 -75 17 -116q17 -41 57 -41q38 0 56.5 35.5q18.5 35.5 18.5 121.5q0 77 -17 117q-17 40 -58 40q-35 0 -54.5 -35.5q-19.5 -35.5 -19.5 -121.5zt0 0zM141 700h108v-16l-64 -113h-73zM295 700h114v-16l-99 -113l-75 0z" />
<glyph unicode="&#338;" horiz-adv-x="753" d="M368 573q-16 11 -39 18q-23 7 -52 7q-57 0 -86.5 -60.5q-29.5 -60.5 -29.5 -187.5q0 -53 6.5 -98.5q6.5 -45.5 21 -78.5q14.5 -33 37.5 -52q23 -19 57 -19q23 0 43 4q20 4 42 15zM368 0q-16 -6 -43.5 -10q-27.5 -4 -52.5 -4q-64 0 -110 26q-46 26 -75.5 73.5q-29.5 47.5 -43.5 114.5q-14 67 -14 150q0 177 61 270.5q61 93.5 182 93.5q30 0 54.5 -4.5q24.5 -4.5 41.5 -9.5l349 0v-116h-223v-172h202v-116h-202v-180h227l0 -116z" />
<glyph unicode="&#339;" horiz-adv-x="697" d="M148 250q0 -72 17.5 -115q17.5 -43 56.5 -43q38 0 56 37q18 37 18 121q0 75 -16.5 116.5q-16.5 41.5 -57.5 41.5q-35 0 -54.5 -36q-19.5 -36 -19.5 -122zt0 0zM355 55q-20 -32 -52.5 -50.5q-32.5 -18.5 -82.5 -18.5q-99 0 -147 68q-48 68 -48 196q0 130 51.5 197q51.5 67 145.5 67q56 0 88 -21q32 -21 50 -47q19 26 50.5 47q31.5 21 85.5 21q32 0 62.5 -9.5q30.5 -9.5 54 -32q23.5 -22.5 37.5 -60.5q14 -38 14 -94q0 -23 -2.5 -47.5q-2.5 -24.5 -7.5 -53.5l-242 0q2 -64 25.5 -97.5q23.5 -33.5 74.5 -33.5q34 0 60.5 12q26.5 12 40.5 24l39 -83q-25 -23 -69.5 -38q-44.5 -15 -92.5 -15q-45 0 -80 18.5q-35 18.5 -55 50.5zt0 0zM494 414q-40 0 -58 -33.5q-18 -33.5 -21 -84.5l138 0q4 54 -10.5 86t-48.5 32z" />
<glyph unicode="&#340;" horiz-adv-x="503" d="M45 693q41 9 88 13q47 4 81 4q43 0 84 -8.5q41 -8.5 72.5 -31q31.5 -22.5 51 -61q19.5 -38.5 19.5 -97.5q0 -85 -31.5 -138.5q-31.5 -53.5 -86.5 -73.5l40 -32l129 -268h-145l-122 276l-54 13v-289h-126zM171 375h43q47 0 71 28.5q24 28.5 24 88.5q0 45 -20 73.5q-20 28.5 -63 28.5q-16 0 -31 -1q-15 -1 -24 -4zM237 870h143v-30l-132 -88l-93 0z" />
<glyph unicode="&#341;" horiz-adv-x="293" d="M279 382q-24 9 -44 9q-27 0 -46.5 -15q-19.5 -15 -26.5 -42l0 -334h-119v500h91l14 -60h4q13 33 37.5 51.5q24.5 18.5 56.5 18.5q24 0 47 -10zM146 720h119v-30l-94 -124l-67 0z" />
<glyph unicode="&#342;" horiz-adv-x="503" d="M45 693q41 9 88 13q47 4 81 4q43 0 84 -8.5q41 -8.5 72.5 -31q31.5 -22.5 51 -61q19.5 -38.5 19.5 -97.5q0 -85 -31.5 -138.5q-31.5 -53.5 -86.5 -73.5l40 -32l129 -268h-145l-122 276l-54 13v-289h-126zM171 375h43q47 0 71 28.5q24 28.5 24 88.5q0 45 -20 73.5q-20 28.5 -63 28.5q-16 0 -31 -1q-15 -1 -24 -4zM192 -106q0 29 18 46.5q18 17.5 44 17.5q31 0 50.5 -22q19.5 -22 19.5 -67q0 -33 -10 -58q-10 -25 -24.5 -42q-14.5 -17 -30 -27.5q-15.5 -10.5 -27.5 -14.5l-33 46q13 8 25 23.5q12 15.5 14 37.5q-15 1 -30.5 15t-15.5 45z" />
<glyph unicode="&#343;" horiz-adv-x="293" d="M279 382q-24 9 -44 9q-27 0 -46.5 -15q-19.5 -15 -26.5 -42l0 -334h-119v500h91l14 -60h4q13 33 37.5 51.5q24.5 18.5 56.5 18.5q24 0 47 -10zM60 -106q0 29 18 46.5q18 17.5 44 17.5q31 0 50.5 -22q19.5 -22 19.5 -67q0 -33 -10 -58q-10 -25 -24.5 -42q-14.5 -17 -30 -27.5q-15.5 -10.5 -27.5 -14.5l-33 46q13 8 25 23.5q12 15.5 14 37.5q-15 1 -30.5 15t-15.5 45z" />
<glyph unicode="&#344;" horiz-adv-x="503" d="M46 693q41 9 88 13q47 4 81 4q43 0 84 -8.5q41 -8.5 72.5 -31q31.5 -22.5 51 -61q19.5 -38.5 19.5 -97.5q0 -85 -31.5 -138.5q-31.5 -53.5 -86.5 -73.5l40 -32l129 -268h-145l-122 276l-54 13v-289h-126zM172 375h43q47 0 71 28.5q24 28.5 24 88.5q0 45 -20 73.5q-20 28.5 -63 28.5q-16 0 -31 -1q-15 -1 -24 -4zM258 737h-87l-104 94v39h91l42 -45l17 -30l17 29l45 46h88l0 -40z" />
<glyph unicode="&#345;" horiz-adv-x="293" d="M279 382q-24 9 -44 9q-27 0 -46.5 -15q-19.5 -15 -26.5 -42l0 -334h-119v500h91l14 -60h4q13 33 37.5 51.5q24.5 18.5 56.5 18.5q24 0 47 -10zM202 550h-88l-95 182h98l32 -66l13 -49l13 49l37 66l91 0z" />
<glyph unicode="&#346;" horiz-adv-x="439" d="M290 180q0 32 -19 54.5q-19 22.5 -47.5 42.5q-28.5 20 -62 41q-33.5 21 -62 49q-28.5 28 -47.5 66q-19 38 -19 93q0 51 15.5 86.5q15.5 35.5 42.5 58q27 22.5 64 33q37 10.5 79 10.5q51 0 95 -10q44 -10 73 -27l-39 -111q-17 12 -50.5 22q-33.5 10 -72.5 10q-39 0 -60 -16q-21 -16 -21 -47q0 -28 19 -49.5q19 -21.5 47.5 -41.5q28.5 -20 62 -41.5q33.5 -21.5 62 -50q28.5 -28.5 47.5 -67q19 -38.5 19 -91.5q0 -53 -15.5 -92q-15.5 -39 -44 -64.5q-28.5 -25.5 -68.5 -38.5q-40 -13 -89 -13q-62 0 -108.5 12q-46.5 12 -71.5 27l41 113q20 -12 55 -24q35 -12 75 -12q100 0 100 78zt0 0zM248 870h143v-30l-132 -88l-93 0z" />
<glyph unicode="&#347;" horiz-adv-x="350" d="M211 133q0 21 -13.5 35.5q-13.5 14.5 -34.5 27q-21 12.5 -44.5 25.5q-23.5 13 -44.5 32q-21 19 -34.5 46q-13.5 27 -13.5 68q0 70 38 108q38 38 112 38q44 0 83 -9.5q39 -9.5 62 -23.5l-28 -92q-19 8 -46 15.5q-27 7.5 -53 7.5q-49 0 -49 -41q0 -19 13.5 -31.5q13.5 -12.5 34.5 -24.5q21 -12 44.5 -25q23.5 -13 44.5 -32.5q21 -19.5 34.5 -47.5q13.5 -28 13.5 -69q0 -69 -42 -111q-42 -42 -125 -42q-41 0 -80.5 10q-39.5 10 -63.5 26l33 96q21 -12 48.5 -21q27.5 -9 57.5 -9q23 0 38 10.5q15 10.5 15 33.5zt0 0zM174 720h119v-30l-94 -124l-67 0z" />
<glyph unicode="&#348;" horiz-adv-x="439" d="M290 180q0 32 -19 54.5q-19 22.5 -47.5 42.5q-28.5 20 -62 41q-33.5 21 -62 49q-28.5 28 -47.5 66q-19 38 -19 93q0 51 15.5 86.5q15.5 35.5 42.5 58q27 22.5 64 33q37 10.5 79 10.5q51 0 95 -10q44 -10 73 -27l-39 -111q-17 12 -50.5 22q-33.5 10 -72.5 10q-39 0 -60 -16q-21 -16 -21 -47q0 -28 19 -49.5q19 -21.5 47.5 -41.5q28.5 -20 62 -41.5q33.5 -21.5 62 -50q28.5 -28.5 47.5 -67q19 -38.5 19 -91.5q0 -53 -15.5 -92q-15.5 -39 -44 -64.5q-28.5 -25.5 -68.5 -38.5q-40 -13 -89 -13q-62 0 -108.5 12q-46.5 12 -71.5 27l41 113q20 -12 55 -24q35 -12 75 -12q100 0 100 78zt0 0zM193 870h87l104 -93v-39h-85l-47 41l-17 34l-18 -33l-50 -42h-83l0 40z" />
<glyph unicode="&#349;" horiz-adv-x="350" d="M211 133q0 21 -13.5 35.5q-13.5 14.5 -34.5 27q-21 12.5 -44.5 25.5q-23.5 13 -44.5 32q-21 19 -34.5 46q-13.5 27 -13.5 68q0 70 38 108q38 38 112 38q44 0 83 -9.5q39 -9.5 62 -23.5l-28 -92q-19 8 -46 15.5q-27 7.5 -53 7.5q-49 0 -49 -41q0 -19 13.5 -31.5q13.5 -12.5 34.5 -24.5q21 -12 44.5 -25q23.5 -13 44.5 -32.5q21 -19.5 34.5 -47.5q13.5 -28 13.5 -69q0 -69 -42 -111q-42 -42 -125 -42q-41 0 -80.5 10q-39.5 10 -63.5 26l33 96q21 -12 48.5 -21q27.5 -9 57.5 -9q23 0 38 10.5q15 10.5 15 33.5zt0 0zM138 732h85l91 -182h-93l-32 66l-13 49l-13 -49l-37 -66l-89 0z" />
<glyph unicode="&#350;" horiz-adv-x="439" d="M290 180q0 32 -19 54.5q-19 22.5 -47.5 42.5q-28.5 20 -62 41q-33.5 21 -62 49q-28.5 28 -47.5 66q-19 38 -19 93q0 51 15.5 86.5q15.5 35.5 42.5 58q27 22.5 64 33q37 10.5 79 10.5q51 0 95 -10q44 -10 73 -27l-39 -111q-17 12 -50.5 22q-33.5 10 -72.5 10q-39 0 -60 -16q-21 -16 -21 -47q0 -28 19 -49.5q19 -21.5 47.5 -41.5q28.5 -20 62 -41.5q33.5 -21.5 62 -50q28.5 -28.5 47.5 -67q19 -38.5 19 -91.5q0 -92 -45 -142.5q-45 -50.5 -122 -61.5l-15 -33q34 -4 54 -21.5q20 -17.5 20 -53.5q0 -23 -10.5 -40q-10.5 -17 -28.5 -28.5q-18 -11.5 -42 -17.5q-24 -6 -50 -6q-27 0 -54 6l7 48q42 -4 55.5 5.5q13.5 9.5 13.5 23.5q0 28 -70 32l42 82q-52 2 -91 13q-39 11 -61 25l41 114q20 -12 55 -24q35 -12 75 -12q100 0 100 77z" />
<glyph unicode="&#351;" horiz-adv-x="350" d="M52 119q21 -12 48.5 -21q27.5 -9 57.5 -9q23 0 38 10.5q15 10.5 15 33.5q0 21 -13.5 35.5q-13.5 14.5 -34.5 27q-21 12.5 -44.5 25.5q-23.5 13 -44.5 32q-21 19 -34.5 46q-13.5 27 -13.5 68q0 70 38 108q38 38 112 38q44 0 83 -9.5q39 -9.5 62 -23.5l-28 -92q-19 8 -46 15.5q-27 7.5 -53 7.5q-49 0 -49 -41q0 -19 13.5 -31.5q13.5 -12.5 34.5 -24.5q21 -12 44.5 -25q23.5 -13 44.5 -32.5q21 -19.5 34.5 -47.5q13.5 -28 13.5 -69q0 -59 -30 -98q-30 -39 -89 -50l-16 -35q34 -4 54 -21.5q20 -17.5 20 -53.5q0 -23 -10.5 -40q-10.5 -17 -28.5 -28.5q-18 -11.5 -42 -17.5q-24 -6 -50 -6q-27 0 -54 6l7 48q42 -4 55.5 5.5q13.5 9.5 13.5 23.5q0 28 -70 32l43 84q-34 3 -64 12q-30 9 -50 22z" />
<glyph unicode="&#352;" horiz-adv-x="439" d="M290 180q0 32 -19 54.5q-19 22.5 -47.5 42.5q-28.5 20 -62 41q-33.5 21 -62 49q-28.5 28 -47.5 66q-19 38 -19 93q0 51 15.5 86.5q15.5 35.5 42.5 58q27 22.5 64 33q37 10.5 79 10.5q51 0 95 -10q44 -10 73 -27l-39 -111q-17 12 -50.5 22q-33.5 10 -72.5 10q-39 0 -60 -16q-21 -16 -21 -47q0 -28 19 -49.5q19 -21.5 47.5 -41.5q28.5 -20 62 -41.5q33.5 -21.5 62 -50q28.5 -28.5 47.5 -67q19 -38.5 19 -91.5q0 -53 -15.5 -92q-15.5 -39 -44 -64.5q-28.5 -25.5 -68.5 -38.5q-40 -13 -89 -13q-62 0 -108.5 12q-46.5 12 -71.5 27l41 113q20 -12 55 -24q35 -12 75 -12q100 0 100 78zt0 0zM275 737h-87l-104 94v39h91l42 -45l17 -30l17 29l45 46h88l0 -40z" />
<glyph unicode="&#353;" horiz-adv-x="350" d="M211 133q0 21 -13.5 35.5q-13.5 14.5 -34.5 27q-21 12.5 -44.5 25.5q-23.5 13 -44.5 32q-21 19 -34.5 46q-13.5 27 -13.5 68q0 70 38 108q38 38 112 38q44 0 83 -9.5q39 -9.5 62 -23.5l-28 -92q-19 8 -46 15.5q-27 7.5 -53 7.5q-49 0 -49 -41q0 -19 13.5 -31.5q13.5 -12.5 34.5 -24.5q21 -12 44.5 -25q23.5 -13 44.5 -32.5q21 -19.5 34.5 -47.5q13.5 -28 13.5 -69q0 -69 -42 -111q-42 -42 -125 -42q-41 0 -80.5 10q-39.5 10 -63.5 26l33 96q21 -12 48.5 -21q27.5 -9 57.5 -9q23 0 38 10.5q15 10.5 15 33.5zt0 0zM217 550h-88l-95 182h98l32 -66l13 -49l13 49l37 66l91 0z" />
<glyph unicode="&#354;" horiz-adv-x="474" d="M274 0l-20 -43q34 -4 54 -21.5q20 -17.5 20 -53.5q0 -23 -10.5 -40q-10.5 -17 -28.5 -28.5q-18 -11.5 -42 -17.5q-24 -6 -50 -6q-27 0 -54 6l7 48q42 -4 55.5 5.5q13.5 9.5 13.5 23.5q0 28 -70 32l49 95h-24v584h-166v116h458v-116h-166l0 -584z" />
<glyph unicode="&#355;" horiz-adv-x="291" d="M195 -43q34 -4 54 -21.5q20 -17.5 20 -53.5q0 -23 -10.5 -40q-10.5 -17 -28.5 -28.5q-18 -11.5 -42 -17.5q-24 -6 -50 -6q-27 0 -54 6l7 48q42 -4 55.5 5.5q13.5 9.5 13.5 23.5q0 28 -70 32l45 88q-30 7 -48 28q-28 33 -28 111v262h-55v106h55v94l119 37v-131h97v-106h-97v-218q0 -43 8.5 -61q8.5 -18 30.5 -18q15 0 27 3q12 3 26 9l15 -95q-22 -11 -51 -18q-12 -3 -24 -5z" />
<glyph unicode="&#356;" horiz-adv-x="474" d="M466 584h-166v-584h-126v584h-166v116h458zM277 737h-87l-104 94v39h91l42 -45l17 -30l17 29l45 46h88l0 -40z" />
<glyph unicode="&#357;" horiz-adv-x="291" d="M4 500h55v94l119 37v-131h97v-106h-97v-218q0 -43 8.5 -61q8.5 -18 30.5 -18q15 0 27 3q12 3 26 9l15 -95q-22 -11 -51 -18.5q-29 -7.5 -61 -7.5q-57 0 -85.5 33q-28.5 33 -28.5 111v262h-55zM333 723q-2 -29 -10.5 -60.5q-8.5 -31.5 -20.5 -59.5q-12 -28 -25.5 -50q-13.5 -22 -23.5 -32l-53 26q14 36 21.5 83q7.5 47 7.5 93z" />
<glyph unicode="&#362;" horiz-adv-x="515" d="M354 700h119v-454q0 -136 -55.5 -197q-55.5 -61 -153.5 -61q-115 0 -168.5 59.5q-53.5 59.5 -53.5 181.5v471h126v-449q0 -82 22 -114.5q22 -32.5 73 -32.5q49 0 70 34.5q21 34.5 21 112.5zM115 856h289v-89l-289 0z" />
<glyph unicode="&#363;" horiz-adv-x="446" d="M158 500v-299q0 -59 11 -82q11 -23 40 -23q28 0 47 20.5q19 20.5 27 49.5l0 334h119v-348q0 -41 3 -80.5q3 -39.5 11 -71.5l-90 0l-21 68h-3q-19 -35 -51.5 -58q-32.5 -23 -80.5 -23q-31 0 -55 8.5q-24 8.5 -41 29.5q-17 21 -26 57.5q-9 36.5 -9 92.5v325zM86 658h272v-91l-272 0z" />
<glyph unicode="&#364;" horiz-adv-x="515" d="M354 700h119v-454q0 -136 -55.5 -197q-55.5 -61 -153.5 -61q-115 0 -168.5 59.5q-53.5 59.5 -53.5 181.5v471h126v-449q0 -82 22 -114.5q22 -32.5 73 -32.5q49 0 70 34.5q21 34.5 21 112.5zM142 875q17 -26 49 -40.5q32 -14.5 70 -14.5q40 0 68.5 15q28.5 15 45.5 40l44 -31q-11 -30 -28 -51.5q-17 -21.5 -38.5 -35.5q-21.5 -14 -45 -20.5q-23.5 -6.5 -47.5 -6.5q-22 0 -45.5 6q-23.5 6 -46 19q-22.5 13 -41.5 34q-19 21 -31 51z" />
<glyph unicode="&#365;" horiz-adv-x="446" d="M158 500v-299q0 -59 11 -82q11 -23 40 -23q28 0 47 20.5q19 20.5 27 49.5l0 334h119v-348q0 -41 3 -80.5q3 -39.5 11 -71.5l-90 0l-21 68h-3q-19 -35 -51.5 -58q-32.5 -23 -80.5 -23q-31 0 -55 8.5q-24 8.5 -41 29.5q-17 21 -26 57.5q-9 36.5 -9 92.5v325zM134 719q14 -30 39 -45q25 -15 54 -15q29 0 52 15q23 15 34 45l55 -26q-2 -26 -13.5 -49q-11.5 -23 -30 -41q-18.5 -18 -43.5 -28.5q-25 -10.5 -55 -10.5q-57 0 -97 33q-40 33 -51 92z" />
<glyph unicode="&#366;" horiz-adv-x="515" d="M354 700h119v-454q0 -136 -55.5 -197q-55.5 -61 -153.5 -61q-115 0 -168.5 59.5q-53.5 59.5 -53.5 181.5v471h126v-449q0 -82 22 -114.5q22 -32.5 73 -32.5q49 0 70 34.5q21 34.5 21 112.5zM151 772q0 18 5 34.5q5 16.5 18 29q13 12.5 34 19.5q21 7 54 7q61 0 86.5 -24q25.5 -24 25.5 -66q0 -18 -5.5 -34q-5.5 -16 -18.5 -27.5q-13 -11.5 -34.5 -18.5q-21.5 -7 -53.5 -7q-62 0 -86.5 24.5q-24.5 24.5 -24.5 62.5zt0 0zM226 772q0 -31 36 -31q21 0 29 7.5q8 7.5 8 23.5q0 17 -8.5 25.5q-8.5 8.5 -28.5 8.5q-36 0 -36 -34z" />
</font>
</defs>
</svg>
