<?xml version="1.0" standalone="no"?>
<!DOCTYPE svg PUBLIC "-//W3C//DTD SVG 1.1//EN" "http://www.w3.org/Graphics/SVG/1.1/DTD/svg11.dtd" >
<svg xmlns="http://www.w3.org/2000/svg">
<metadata>
Generated by SVGconv.
Copyright   : Copyright  2009 ParaType Ltd. All rights reserved.
Designer    : A.Korolkova, O.Umpeleva, V.Yefimov
Foundry     : ParaType Ltd
Foundry URL : http://www.paratype.com
</metadata>
<defs>
<font id="PTSans-Narrow" horiz-adv-x="426" >
<font-face units-per-em="1000" ascent="1018" descent="276" />
<missing-glyph horiz-adv-x="750" />
<glyph unicode="&#13;" horiz-adv-x="212" />
<glyph unicode="&#32;" horiz-adv-x="212" />
<glyph unicode="&#33;" horiz-adv-x="247" d="M101 700h75v-347l-15 -176h-45l-15 176zM88 45q0 28 13.5 42q13.5 14 36.5 14q23 0 36.5 -14q13.5 -14 13.5 -42q0 -29 -13.5 -43q-13.5 -14 -36.5 -14q-23 0 -36.5 14t-13.5 43z" />
<glyph unicode="&#34;" horiz-adv-x="286" d="M177 700h69l-26 -193h-43zM72 700h69l-26 -193l-43 0z" />
<glyph unicode="&#35;" horiz-adv-x="450" d="M230 225h-82l-32 -167h-61l32 167h-63l13 60h61l27 140h-61l13 60h60l30 157h61l-30 -157h82l31 157h61l-30 -157h61l-14 -60h-59l-27 -140h60l-14 -60h-57l-32 -167h-62zM159 285h83l27 140l-83 0z" />
<glyph unicode="&#36;" horiz-adv-x="450" d="M196 -12q-44 2 -77.5 9q-33.5 7 -55.5 21l23 68q16 -11 44 -21q28 -10 66 -12l0 284q-25 16 -48.5 34q-23.5 18 -42 42q-18.5 24 -30 55.5q-11.5 31.5 -11.5 74.5q0 66 33.5 110.5q33.5 44.5 98.5 55.5l0 91h61v-89q39 -2 65 -7.5q26 -5.5 49 -16.5v-65q-40 9 -61 15.5q-21 6.5 -53 8.5l0 -258q25 -17 50 -36q25 -19 44.5 -43.5q19.5 -24.5 31.5 -56q12 -31.5 12 -73.5q0 -72 -35.5 -122q-35.5 -50 -102.5 -64l0 -93h-61zM241 57q36 8 57.5 37.5q21.5 29.5 21.5 79.5q0 48 -23 78q-23 30 -56 54zM212 644q-41 -8 -57 -37q-16 -29 -16 -61q0 -44 20.5 -73q20.5 -29 52.5 -53z" />
<glyph unicode="&#37;" horiz-adv-x="637" d="M55 542q0 46 9.5 78.5q9.5 32.5 27 53q17.5 20.5 41 29.5q23.5 9 50.5 9q27 0 50.5 -8.5q23.5 -8.5 41 -28q17.5 -19.5 27 -52.5q9.5 -33 9.5 -81q0 -48 -9.5 -81q-9.5 -33 -27 -52.5q-17.5 -19.5 -41 -28q-23.5 -8.5 -50.5 -8.5q-27 0 -50.5 8.5q-23.5 8.5 -41 28q-17.5 19.5 -27 52.5q-9.5 33 -9.5 81zt0 0zM120 542q0 -65 17.5 -90q17.5 -25 45.5 -25q14 0 25.5 5q11.5 5 19.5 17.5q8 12.5 12.5 35q4.5 22.5 4.5 57.5q0 34 -4.5 56.5q-4.5 22.5 -12.5 35.5q-8 13 -19.5 18q-11.5 5 -25.5 5q-15 0 -26.5 -5q-11.5 -5 -19.5 -18q-8 -13 -12.5 -35.5q-4.5 -22.5 -4.5 -56.5zt0 0zM349 170q0 46 9.5 78.5q9.5 32.5 27 53q17.5 20.5 41 29.5q23.5 9 50.5 9q27 0 50.5 -8.5q23.5 -8.5 41 -28q17.5 -19.5 27 -52.5q9.5 -33 9.5 -81q0 -48 -9.5 -81q-9.5 -33 -27 -52.5q-17.5 -19.5 -41 -28q-23.5 -8.5 -50.5 -8.5q-27 0 -50.5 8.5q-23.5 8.5 -41 28q-17.5 19.5 -27 52.5q-9.5 33 -9.5 81zt0 0zM414 170q0 -65 17.5 -90q17.5 -25 45.5 -25q14 0 25.5 5q11.5 5 19.5 17.5q8 12.5 12.5 35q4.5 22.5 4.5 57.5q0 34 -4.5 56.5q-4.5 22.5 -12.5 35.5q-8 13 -19.5 18q-11.5 5 -25.5 5q-15 0 -26.5 -5q-11.5 -5 -19.5 -18q-8 -13 -12.5 -35.5q-4.5 -22.5 -4.5 -56.5zt0 0zM518 713l47 -30l-426 -695l-47 30z" />
<glyph unicode="&#38;" horiz-adv-x="656" d="M91 188q0 40 12 75.5q12 35.5 31.5 66q19.5 30.5 44.5 55.5q25 25 51 45q-20 36 -35 74q-15 38 -15 80q0 24 6.5 47q6.5 23 21.5 41q15 18 38 29q23 11 56 11q34 0 57.5 -10q23.5 -10 37.5 -26q14 -16 20.5 -36.5q6.5 -20.5 6.5 -42.5q0 -43 -27 -88q-27 -45 -82 -88q13 -28 29.5 -58.5q16.5 -30.5 35 -61q18.5 -30.5 38 -60q19.5 -29.5 38.5 -54.5q18 25 34 67q16 42 26 81l58 -23q-5 -17 -14 -41q-9 -24 -19.5 -48.5q-10.5 -24.5 -22 -47q-11.5 -22.5 -21.5 -37.5q33 -39 55.5 -60.5q22.5 -21.5 45.5 -37.5l-45 -52q-45 26 -98 93q-14 -18 -31.5 -34.5q-17.5 -16.5 -39 -29.5q-21.5 -13 -48 -21q-26.5 -8 -57.5 -8q-39 0 -73.5 12.5q-34.5 12.5 -60 37.5q-25.5 25 -40 62.5q-14.5 37.5 -14.5 87.5zt0 0zM413 130q-23 29 -45 62q-22 33 -42 66q-20 33 -36.5 64q-16.5 31 -27.5 57q-21 -20 -39 -40q-18 -20 -31.5 -42.5q-13.5 -22.5 -21 -49q-7.5 -26.5 -7.5 -58.5q0 -33 10 -58.5q10 -25.5 27.5 -42.5q17.5 -17 40 -26q22.5 -9 47.5 -9q19 0 38 7q19 7 35.5 18q16.5 11 29.5 24.5q13 13.5 22 27.5zt0 0zM252 584q0 -30 9.5 -59q9.5 -29 24.5 -59q41 35 56.5 64q15.5 29 15.5 52q0 28 -11.5 48.5q-11.5 20.5 -41.5 20.5q-28 0 -40.5 -19t-12.5 -48z" />
<glyph unicode="&#39;" horiz-adv-x="181" d="M72 700h69l-26 -193l-43 0z" />
<glyph unicode="&#40;" horiz-adv-x="233" d="M183 -220q-38 48 -63.5 105.5q-25.5 57.5 -41.5 118q-16 60.5 -23 122q-7 61.5 -7 117.5q0 55 7 116q7 61 23 122.5q16 61.5 42.5 120.5q26.5 59 64.5 110l45 -27q-32 -51 -53 -107q-21 -56 -33.5 -113.5q-12.5 -57.5 -18 -114q-5.5 -56.5 -5.5 -107.5q0 -48 6 -105.5q6 -57.5 19.5 -115.5q13.5 -58 34.5 -113q21 -55 50 -99z" />
<glyph unicode="&#41;" horiz-adv-x="233" d="M48 -190q29 44 50 99q21 55 34.5 113q13.5 58 19.5 115.5q6 57.5 6 105.5q0 51 -5.5 107.5q-5.5 56.5 -18 114q-12.5 57.5 -34 113.5q-21.5 56 -52.5 107l45 27q38 -51 64.5 -110q26.5 -59 42.5 -120.5q16 -61.5 23 -122.5q7 -61 7 -116q0 -56 -7 -117.5q-7 -61.5 -23 -122q-16 -60.5 -42 -118q-26 -57.5 -63 -105.5z" />
<glyph unicode="&#42;" horiz-adv-x="291" d="M108 703l20 -38l15 -52l16 52l21 37l44 -24l-23 -40l-38 -43l55 11h42v-51h-39l-54 11l39 -44l20 -35l-43 -25l-21 38l-19 55l-15 -53l-21 -37l-44 25l23 38l35 38l-47 -11h-44v51h44l50 -11l-38 41l-22 41z" />
<glyph unicode="&#43;" horiz-adv-x="415" d="M35 373h138v156h68v-156h138v-67h-138v-156h-68v156l-138 0z" />
<glyph unicode="&#44;" horiz-adv-x="186" d="M36 43q0 25 14.5 40q14.5 15 37.5 15q26 0 42.5 -21q16.5 -21 16.5 -66q0 -33 -8.5 -59.5q-8.5 -26.5 -22 -46.5q-13.5 -20 -29.5 -33q-16 -13 -31 -19l-25 34q13 7 24.5 18.5q11.5 11.5 19 25.5q7.5 14 11.5 29.5q4 15.5 4 30.5q-20 -6 -37 8t-17 44z" />
<glyph unicode="&#45;" horiz-adv-x="291" d="M47 320h197v-69l-197 0z" />
<glyph unicode="&#46;" horiz-adv-x="178" d="M39 45q0 28 13.5 42q13.5 14 36.5 14q23 0 36.5 -14q13.5 -14 13.5 -42q0 -29 -13.5 -43q-13.5 -14 -36.5 -14q-23 0 -36.5 14t-13.5 43z" />
<glyph unicode="&#47;" horiz-adv-x="295" d="M266 712l56 -22l-292 -830l-58 21z" />
<glyph unicode="&#48;" horiz-adv-x="450" d="M38 350q0 96 12 165q12 69 36 112.5q24 43.5 59 64q35 20.5 80 20.5q48 0 83.5 -20.5q35.5 -20.5 58.5 -64q23 -43.5 34 -112.5q11 -69 11 -165q0 -97 -12 -165.5q-12 -68.5 -36 -112q-24 -43.5 -58.5 -64q-34.5 -20.5 -79.5 -20.5q-49 0 -84.5 21q-35.5 21 -58.5 65q-23 44 -34 112.5q-11 68.5 -11 163.5zt0 0zM113 350q0 -143 27 -220q27 -77 87 -77q58 0 84.5 70.5q26.5 70.5 26.5 226.5q0 142 -25.5 219.5q-25.5 77.5 -87.5 77.5q-58 0 -85 -70t-27 -227z" />
<glyph unicode="&#49;" horiz-adv-x="450" d="M94 67h113v487l9 59l-34 -48l-84 -68l-38 45l182 170h37v-645h109v-67l-294 0z" />
<glyph unicode="&#50;" horiz-adv-x="450" d="M368 547q0 -55 -16.5 -115q-16.5 -60 -42 -118.5q-25.5 -58.5 -57 -112.5q-31.5 -54 -61.5 -96l-40 -44v-3l53 9h175v-67h-324v32q19 23 44 58q25 35 51.5 76.5q26.5 41.5 52 88q25.5 46.5 45.5 94.5q20 48 32.5 95q12.5 47 12.5 90q0 51 -23.5 81q-23.5 30 -68.5 30q-29 0 -56.5 -10.5q-27.5 -10.5 -47.5 -26.5l-28 53q27 24 66 37.5q39 13.5 82 13.5q74 0 112.5 -45.5t38.5 -119.5z" />
<glyph unicode="&#51;" horiz-adv-x="450" d="M93 76q19 -11 43.5 -17q24.5 -6 56.5 -6q27 0 49.5 11q22.5 11 39 31q16.5 20 25.5 47.5q9 27.5 9 60.5q0 74 -32.5 108q-32.5 34 -90.5 34h-60v29l116 224l39 42l-55 -7h-157v67h290v-29l-128 -239l-30 -29v-2l29 6q31 0 59 -12.5q28 -12.5 48 -37q20 -24.5 32 -60.5q12 -36 12 -84q0 -54 -15.5 -96q-15.5 -42 -42 -70.5q-26.5 -28.5 -62 -43.5q-35.5 -15 -75.5 -15q-35 0 -66 6q-31 6 -54 17z" />
<glyph unicode="&#52;" horiz-adv-x="450" d="M431 215h-93v-215h-72v215h-246v34l265 462h53v-431h93zM266 504l12 86h-3l-30 -77l-110 -191l-38 -49l55 7l114 0z" />
<glyph unicode="&#53;" horiz-adv-x="450" d="M357 700v-70h-190v-204l34 3q80 -1 126 -55q46 -54 47 -155q-1 -56 -16.5 -99q-15.5 -43 -42.5 -72.5q-27 -29.5 -63 -44.5q-36 -15 -77 -15q-69 0 -111 19l18 64q18 -9 40 -12.5q22 -3.5 51 -3.5q57 0 92.5 41.5q35.5 41.5 36.5 116.5q-1 77 -36.5 114q-35.5 37 -98.5 37l-66 -5l0 341z" />
<glyph unicode="&#54;" horiz-adv-x="450" d="M405 211q-1 -50 -12.5 -91.5q-11.5 -41.5 -34 -70.5q-22.5 -29 -55 -45q-32.5 -16 -73.5 -16q-84 0 -131.5 61q-47.5 61 -47.5 186q0 106 21.5 189q21.5 83 58.5 143q37 60 87 96.5q50 36.5 107 48.5l20 -58q-45 -12 -82 -40q-37 -28 -65 -68q-28 -40 -46.5 -90q-18.5 -50 -25.5 -107q13 27 43.5 47q30.5 20 75.5 20q72 0 115.5 -51q43.5 -51 44.5 -154zt0 0zM332 204q0 147 -106 147q-38 0 -65 -24q-27 -24 -38 -54q-2 -13 -2 -25.5q0 -12.5 1 -23.5q-1 -33 5.5 -63.5q6.5 -30.5 20 -54.5q13.5 -24 34 -38.5q20.5 -14.5 48.5 -14.5q45 0 73.5 40t28.5 111z" />
<glyph unicode="&#55;" horiz-adv-x="450" d="M95 0l202 591l36 49l-48 -9h-229v69h341v-27l-230 -673z" />
<glyph unicode="&#56;" horiz-adv-x="450" d="M58 162q0 67 27.5 114q27.5 47 81.5 85q-20 15 -37.5 31.5q-17.5 16.5 -30.5 37.5q-13 21 -20.5 47q-7.5 26 -7.5 60q0 81 42.5 128q42.5 47 116.5 47q69 0 109.5 -42.5q40.5 -42.5 40.5 -116.5q0 -57 -22 -101q-22 -44 -69 -86q21 -15 40 -33q19 -18 33.5 -40.5q14.5 -22.5 22.5 -51q8 -28.5 8 -65.5q0 -85 -45.5 -136.5q-45.5 -51.5 -126.5 -51.5q-39 0 -69 13q-30 13 -51 36q-21 23 -32 55q-11 32 -11 70zt0 0zM214 333q-46 -34 -66.5 -76q-20.5 -42 -20.5 -84q0 -51 25 -85.5q25 -34.5 73 -34.5q39 0 67.5 28.5q28.5 28.5 28.5 90.5q0 31 -9 55q-9 24 -24 42.5q-15 18.5 -34 34q-19 15.5 -40 29.5zt0 0zM241 392q34 34 52 68.5q18 34.5 18 76.5q0 55 -24.5 82.5q-24.5 27.5 -57.5 27.5q-21 0 -37.5 -8.5q-16.5 -8.5 -27.5 -23.5q-11 -15 -17 -34.5q-6 -19.5 -6 -41.5q0 -27 8 -48.5q8 -21.5 22 -39q14 -17.5 32 -32t38 -27.5z" />
<glyph unicode="&#57;" horiz-adv-x="450" d="M46 488q0 104 44.5 164q44.5 60 132.5 60q84 0 130.5 -62q46.5 -62 46.5 -190q0 -113 -21 -196.5q-21 -83.5 -58 -141q-37 -57.5 -87 -90.5q-50 -33 -108 -44l-19 59q96 25 149 100.5q53 75.5 67 189.5q-21 -29 -46.5 -41q-25.5 -12 -67.5 -12q-32 0 -61.5 12.5q-29.5 12.5 -52 38q-22.5 25.5 -36 64q-13.5 38.5 -13.5 89.5zt0 0zM119 496q0 -71 29 -109q29 -38 77 -38q38 0 64.5 16.5q26.5 16.5 38.5 42.5q2 13 2 25q0 12 0 23q0 38 -6.5 72.5q-6.5 34.5 -20 61q-13.5 26.5 -34.5 42q-21 15.5 -50 15.5q-47 0 -73.5 -41t-26.5 -110z" />
<glyph unicode="&#58;" horiz-adv-x="206" d="M76 448q0 28 13.5 42q13.5 14 36.5 14q23 0 36.5 -14q13.5 -14 13.5 -42q0 -29 -13.5 -43q-13.5 -14 -36.5 -14q-23 0 -36.5 14q-13.5 14 -13.5 43zt0 0zM76 45q0 28 13.5 42q13.5 14 36.5 14q23 0 36.5 -14q13.5 -14 13.5 -42q0 -29 -13.5 -43q-13.5 -14 -36.5 -14q-23 0 -36.5 14t-13.5 43z" />
<glyph unicode="&#59;" horiz-adv-x="216" d="M75 43q0 25 14.5 40q14.5 15 37.5 15q26 0 42.5 -21q16.5 -21 16.5 -66q0 -33 -8.5 -59.5q-8.5 -26.5 -22 -46.5q-13.5 -20 -29.5 -33q-16 -13 -31 -19l-25 34q13 7 24.5 18.5q11.5 11.5 19 25.5q7.5 14 11.5 29.5q4 15.5 4 30.5q-20 -6 -37 8q-17 14 -17 44zt0 0zM85 448q0 28 13.5 42q13.5 14 36.5 14q23 0 36.5 -14q13.5 -14 13.5 -42q0 -29 -13.5 -43q-13.5 -14 -36.5 -14q-23 0 -36.5 14t-13.5 43z" />
<glyph unicode="&#60;" horiz-adv-x="415" d="M36 305v29l300 223l39 -54l-191 -145l-74 -38l73 -32l196 -144l-38 -54z" />
<glyph unicode="&#61;" horiz-adv-x="415" d="M35 456h344v-67h-344zM35 290h344v-67l-344 0z" />
<glyph unicode="&#62;" horiz-adv-x="415" d="M379 344v-29l-298 -223l-41 53l192 145l73 38l-72 32l-197 144l40 53z" />
<glyph unicode="&#63;" horiz-adv-x="358" d="M123 177q-3 44 5.5 78q8.5 34 23.5 62.5q15 28.5 32.5 53.5q17.5 25 33.5 51.5q16 26.5 26.5 56q10.5 29.5 10.5 66.5q0 46 -20 74q-20 28 -68 28q-29 0 -57 -10.5q-28 -10.5 -50 -26.5l-28 56q30 20 65.5 33q35.5 13 86.5 13q72 0 109 -42q37 -42 37 -115q0 -43 -11 -77q-11 -34 -27 -62.5q-16 -28.5 -35 -54.5q-19 -26 -35.5 -53.5q-16.5 -27.5 -27.5 -59q-11 -31.5 -11 -71.5zM108 45q0 28 13.5 42q13.5 14 36.5 14q23 0 36.5 -14q13.5 -14 13.5 -42q0 -29 -13.5 -43q-13.5 -14 -36.5 -14q-23 0 -36.5 14t-13.5 43z" />
<glyph unicode="&#64;" horiz-adv-x="857" d="M565 491h33l-41 -291q-9 -67 -5.5 -99.5q3.5 -32.5 29.5 -32.5q26 0 52 17q26 17 46.5 50q20.5 33 33 81q12.5 48 12.5 110q0 71 -20.5 124.5q-20.5 53.5 -57 89.5q-36.5 36 -88.5 54.5q-52 18.5 -115 18.5q-65 0 -122 -26.5q-57 -26.5 -99 -75.5q-42 -49 -66.5 -117q-24.5 -68 -24.5 -152q0 -87 22.5 -151q22.5 -64 63.5 -107q41 -43 97 -64q56 -21 124 -21q24 0 55.5 6q31.5 6 54.5 18l18 -56q-34 -16 -67.5 -22.5q-33.5 -6.5 -70.5 -6.5q-73 0 -138.5 23q-65.5 23 -115 71.5q-49.5 48.5 -78.5 124q-29 75.5 -29 179.5q0 103 30.5 184.5q30.5 81.5 82 137.5q51.5 56 120.5 86q69 30 146 30q74 0 136.5 -22q62.5 -22 108.5 -66q46 -44 71.5 -109q25.5 -65 25.5 -151q0 -69 -18 -128q-18 -59 -48.5 -102q-30.5 -43 -71 -67.5q-40.5 -24.5 -86.5 -24.5q-19 0 -34.5 5q-15.5 5 -25 17q-9.5 12 -13.5 32q-4 20 0 49v0q-15 -20 -30 -38.5q-15 -18.5 -32.5 -33q-17.5 -14.5 -38 -23q-20.5 -8.5 -42.5 -8.5q-42 0 -71.5 37.5q-29.5 37.5 -29.5 108.5q0 74 16.5 138q16.5 64 45 111q28.5 47 66.5 73.5q38 26.5 81 26.5q29 0 47.5 -10q18.5 -10 35.5 -27zM519 400q-13 18 -26.5 26q-13.5 8 -33.5 8q-30 0 -56 -22.5q-26 -22.5 -45 -60q-19 -37.5 -30 -85.5q-11 -48 -11 -99q0 -45 13.5 -71.5q13.5 -26.5 45.5 -26.5q15 0 31 11q16 11 31.5 28.5q15.5 17.5 29.5 39.5q14 22 24 44z" />
<glyph unicode="&#65;" horiz-adv-x="473" d="M333 196h-198l-56 -196h-74l211 711h41l211 -711h-78zM155 263h160l-61 216l-19 105h-2l-19 -107z" />
<glyph unicode="&#66;" horiz-adv-x="471" d="M411 541q0 -26 -6 -52q-6 -26 -19 -49q-13 -23 -32.5 -41q-19.5 -18 -47.5 -27l0 -4q24 -5 46 -16.5q22 -11.5 39 -32q17 -20.5 27 -50q10 -29.5 10 -70.5q0 -54 -17 -93.5q-17 -39.5 -46.5 -64.5q-29.5 -25 -68 -37q-38.5 -12 -81.5 -12q-14 0 -32.5 0q-18.5 0 -39.5 1.5q-21 1.5 -41.5 4q-20.5 2.5 -37.5 7.5l0 689q30 6 70.5 10q40.5 4 87.5 4q34 0 68 -6.5q34 -6.5 61 -24.5q27 -18 43.5 -50.5q16.5 -32.5 16.5 -85.5zt0 0zM221 61q27 0 50 8.5q23 8.5 40.5 25.5q17.5 17 27.5 41.5q10 24.5 10 57.5q0 41 -12.5 66.5q-12.5 25.5 -32.5 39.5q-20 14 -45.5 19q-25.5 5 -52.5 5h-67v-256q6 -2 15.5 -3q9.5 -1 21 -2q11.5 -1 23.5 -1.5q12 -0.5 22 -0.5zt0 0zM180 389q14 0 32 1q18 1 30 3q37 15 63.5 48.5q26.5 33.5 26.5 82.5q0 33 -9 55.5q-9 22.5 -24.5 35.5q-15.5 13 -36.5 18.5q-21 5.5 -44 5.5q-26 0 -47 -1.5q-21 -1.5 -32 -3.5l0 -245z" />
<glyph unicode="&#67;" horiz-adv-x="458" d="M430 27q-25 -21 -63 -30q-38 -9 -80 -9q-53 0 -98 20q-45 20 -77.5 63.5q-32.5 43.5 -50.5 112.5q-18 69 -18 166q0 100 20.5 169q20.5 69 54.5 112q34 43 78.5 62q44.5 19 91.5 19q48 0 79.5 -7q31.5 -7 54.5 -17l-18 -68q-20 11 -47 17q-27 6 -62 6q-35 0 -66 -15.5q-31 -15.5 -55 -50q-24 -34.5 -38 -90.5q-14 -56 -14 -137q0 -146 50 -219.5q50 -73.5 133 -73.5q34 0 61 9.5q27 9.5 46 22.5z" />
<glyph unicode="&#68;" horiz-adv-x="525" d="M64 700q16 3 35.5 4.5q19.5 1.5 39.5 2q20 0.5 39.5 1q19.5 0.5 36.5 0.5q73 0 124 -25q51 -25 83 -71.5q32 -46.5 46 -111.5q14 -65 14 -145q0 -72 -13.5 -138q-13.5 -66 -45.5 -116q-32 -50 -84.5 -80q-52.5 -30 -131.5 -30q-13 0 -33 0.5q-20 0.5 -41.5 2q-21.5 1.5 -40 2.5q-18.5 1 -28.5 3zM219 639q-10 0 -21.5 0q-11.5 0 -22.5 -1q-11 -1 -20.5 -2q-9.5 -1 -15.5 -2l0 -570q4 -1 14.5 -1.5q10.5 -0.5 22 -1q11.5 -0.5 22 -1q10.5 -0.5 15.5 -0.5q55 0 92 24q37 24 58.5 64.5q21.5 40.5 30.5 94q9 53.5 9 113.5q0 53 -8 104q-8 51 -28.5 90.5q-20.5 39.5 -56 64t-91.5 24.5z" />
<glyph unicode="&#69;" horiz-adv-x="429" d="M64 700h311v-69h-236v-237h217v-69h-217v-256h241v-69l-316 0z" />
<glyph unicode="&#70;" horiz-adv-x="413" d="M64 700h311v-69h-236v-247h220v-69h-220v-315l-75 0z" />
<glyph unicode="&#71;" horiz-adv-x="492" d="M257 349h193v-308q-28 -26 -72 -39.5q-44 -13.5 -89 -13.5q-56 0 -101.5 21q-45.5 21 -77.5 65.5q-32 44.5 -49.5 112.5q-17.5 68 -17.5 163q0 98 21 166.5q21 68.5 56.5 112q35.5 43.5 81 63.5q45.5 20 93.5 20q48 0 80.5 -6.5q32.5 -6.5 55.5 -17.5l-18 -68q-20 11 -47.5 17q-27.5 6 -63.5 6q-35 0 -67 -15q-32 -15 -57.5 -49.5q-25.5 -34.5 -40.5 -90.5q-15 -56 -15 -138q0 -150 47.5 -221.5q47.5 -71.5 130.5 -71.5q52 0 86 25l0 204l-129 19z" />
<glyph unicode="&#72;" horiz-adv-x="536" d="M397 323h-258v-323h-75v700h75v-308h258v308h75v-700l-75 0z" />
<glyph unicode="&#73;" horiz-adv-x="233" d="M79 700h75v-700l-75 0z" />
<glyph unicode="&#74;" horiz-adv-x="241" d="M93 700h75v-543q0 -82 -26.5 -124.5q-26.5 -42.5 -92.5 -42.5q-16 0 -38.5 4q-22.5 4 -36.5 12l16 65q10 -6 22.5 -9q12.5 -3 25.5 -3q18 0 29 8q11 8 17 22.5q6 14.5 7.5 35q1.5 20.5 1.5 46.5z" />
<glyph unicode="&#75;" horiz-adv-x="493" d="M175 324h-36v-324h-75v700h75v-326l35 14l182 312h86l-183 -302l-35 -32l41 -40l203 -326l-95 0z" />
<glyph unicode="&#76;" horiz-adv-x="415" d="M401 0h-337v700h75v-631l262 0z" />
<glyph unicode="&#77;" horiz-adv-x="637" d="M498 460l9 106h-4l-32 -99l-141 -304h-25l-148 304l-31 99h-4l14 -106v-460h-72v700h63l169 -344l25 -82h2l24 83l160 343h66v-700l-75 0z" />
<glyph unicode="&#78;" horiz-adv-x="538" d="M171 444l-43 110h-3l11 -110v-444h-72v711h45l259 -454l41 -105h4l-11 105v443h72v-711l-46 0z" />
<glyph unicode="&#79;" horiz-adv-x="549" d="M43 350q0 178 57 270q57 92 174 92q63 0 107 -25.5q44 -25.5 71.5 -72.5q27.5 -47 40.5 -114q13 -67 13 -150q0 -178 -57.5 -270q-57.5 -92 -174.5 -92q-62 0 -106 25.5q-44 25.5 -72 72.5q-28 47 -40.5 114q-12.5 67 -12.5 150zt0 0zM122 350q0 -59 8.5 -112q8.5 -53 26.5 -93q18 -40 47 -64q29 -24 70 -24q75 0 114 72q39 72 39 221q0 58 -8.5 111q-8.5 53 -26.5 93.5q-18 40.5 -47 64.5q-29 24 -71 24q-74 0 -113 -72t-39 -221z" />
<glyph unicode="&#80;" horiz-adv-x="451" d="M64 693q32 9 68 12q36 3 71 3q40 0 79 -9q39 -9 70.5 -33q31.5 -24 51 -66q19.5 -42 19.5 -107q0 -63 -18.5 -107q-18.5 -44 -49 -71.5q-30.5 -27.5 -70 -40q-39.5 -12.5 -81.5 -12.5q-4 0 -13 0q-9 0 -19 0.5q-10 0.5 -19.5 1.5q-9.5 1 -13.5 2l0 -266h-75zM207 639q-20 0 -38.5 -1.5q-18.5 -1.5 -29.5 -4.5l0 -298q4 -2 12.5 -2.5q8.5 -0.5 17.5 -1q9 -0.5 17.5 -0.5q8.5 0 12.5 0q28 0 54 7q26 7 46 25.5q20 18.5 32.5 50q12.5 31.5 12.5 79.5q0 42 -11.5 70q-11.5 28 -30 45q-18.5 17 -43.5 24t-52 7z" />
<glyph unicode="&#81;" horiz-adv-x="549" d="M566 -166q-20 -7 -38.5 -9.5q-18.5 -2.5 -37.5 -2.5q-40 0 -78.5 10.5q-38.5 10.5 -74 22.5q-35.5 12 -68.5 22.5q-33 10.5 -63 10.5q-18 0 -36 -6l0 68q22 6 44 6q33 0 66.5 -10q33.5 -10 67.5 -22q34 -12 70.5 -22q36.5 -10 75.5 -10q36 0 72 10zM43 350q0 178 57 270q57 92 174 92q63 0 107 -25.5q44 -25.5 71.5 -72.5q27.5 -47 40.5 -114q13 -67 13 -150q0 -178 -57.5 -270q-57.5 -92 -174.5 -92q-62 0 -106 25.5q-44 25.5 -72 72.5q-28 47 -40.5 114q-12.5 67 -12.5 150zt0 0zM122 350q0 -59 8.5 -112q8.5 -53 26.5 -93q18 -40 47 -64q29 -24 70 -24q75 0 114 72q39 72 39 221q0 58 -8.5 111q-8.5 53 -26.5 93.5q-18 40.5 -47 64.5q-29 24 -71 24q-74 0 -113 -72t-39 -221z" />
<glyph unicode="&#82;" horiz-adv-x="480" d="M64 693q33 8 72.5 11.5q39.5 3.5 72.5 3.5q39 0 74 -9.5q35 -9.5 61 -32q26 -22.5 41.5 -59q15.5 -36.5 15.5 -91.5q0 -83 -34.5 -133q-34.5 -50 -91.5 -67l38 -37l138 -279h-87l-150 305l-75 15v-320h-75zM139 370h60q57 0 90 35q33 35 33 107q0 55 -27.5 91q-27.5 36 -81.5 36q-20 0 -41.5 -1.5q-21.5 -1.5 -32.5 -4.5z" />
<glyph unicode="&#83;" horiz-adv-x="428" d="M59 93q19 -13 53.5 -24.5q34.5 -11.5 78.5 -11.5q56 0 91 27.5q35 27.5 35 86.5q0 39 -20 68q-20 29 -50 53.5q-30 24.5 -64.5 48q-34.5 23.5 -64.5 52q-30 28.5 -50 65.5q-20 37 -20 89q0 84 50.5 124.5q50.5 40.5 131.5 40.5q50 0 89 -9q39 -9 63 -23v-66q-42 11 -75.5 20q-33.5 9 -77.5 9q-54 0 -80 -26.5q-26 -26.5 -26 -66.5q0 -35 20 -62q20 -27 50 -51q30 -24 64.5 -48.5q34.5 -24.5 64.5 -54.5q30 -30 50 -68q20 -38 20 -90q0 -88 -52 -138q-52 -50 -147 -50q-60 0 -98.5 11q-38.5 11 -61.5 25z" />
<glyph unicode="&#84;" horiz-adv-x="447" d="M433 631h-172v-631h-75v631h-172v69l419 0z" />
<glyph unicode="&#85;" horiz-adv-x="521" d="M385 700h72v-469q0 -127 -49.5 -183.5q-49.5 -56.5 -140.5 -56.5q-106 0 -154.5 55q-48.5 55 -48.5 169v485h75v-446q0 -54 7 -91q7 -37 23 -60q16 -23 40 -33q24 -10 59 -10q66 0 91.5 46q25.5 46 25.5 148z" />
<glyph unicode="&#86;" horiz-adv-x="463" d="M218 221l18 -107h2l20 109l130 477h77l-212 -711h-40l-215 711l83 0z" />
<glyph unicode="&#87;" horiz-adv-x="672" d="M182 237l12 -117h2l12 119l112 461h43l112 -462l12 -118h1l14 119l89 461h75l-156 -711h-46l-111 461l-14 107h-3l-14 -108l-111 -460h-47l-159 711l81 0z" />
<glyph unicode="&#88;" horiz-adv-x="500" d="M203 356l-168 344h90l109 -237l20 -59l20 59l115 237h83l-174 -337l182 -363h-88l-121 251l-23 62l-21 -62l-124 -251l-84 0z" />
<glyph unicode="&#89;" horiz-adv-x="455" d="M191 278l-186 422h88l126 -305l13 -61h2l13 63l122 303h81l-184 -421v-279l-75 0z" />
<glyph unicode="&#90;" horiz-adv-x="439" d="M29 69l278 522l33 40h-311v69h381v-69l-279 -525l-32 -37h311v-69l-381 0z" />
<glyph unicode="&#91;" horiz-adv-x="248" d="M64 700h156v-65h-84v-800h84v-65l-156 0z" />
<glyph unicode="&#92;" horiz-adv-x="316" d="M330 -117l-60 -23l-298 829l61 23z" />
<glyph unicode="&#93;" horiz-adv-x="248" d="M184 -230h-155v65h83v800h-83v65l155 0z" />
<glyph unicode="&#94;" horiz-adv-x="412" d="M191 711h30l139 -276h-75l-62 135l-18 69l-24 -70l-72 -134l-69 0z" />
<glyph unicode="&#95;" horiz-adv-x="334" d="M0 -140h334v-65l-334 0z" />
<glyph unicode="&#96;" horiz-adv-x="255" d="M195 571h-41l-94 128v21l83 0z" />
<glyph unicode="&#97;" horiz-adv-x="400" d="M54 470q29 18 70.5 28q41.5 10 87.5 10q42 0 67.5 -12.5q25.5 -12.5 40 -34q14.5 -21.5 19 -49q4.5 -27.5 4.5 -57.5q0 -60 -2.5 -117q-2.5 -57 -2.5 -108q0 -38 2.5 -70.5q2.5 -32.5 9.5 -61.5l-55 0l-17 59h-4q-15 -26 -44 -45q-29 -19 -78 -19q-54 0 -88.5 37.5q-34.5 37.5 -34.5 103.5q0 43 14.5 72q14.5 29 41 47q26.5 18 63 25.5q36.5 7.5 81.5 7.5q10 0 20 0q10 0 21 -1q3 31 3 55q0 57 -17 80q-17 23 -62 23q-28 0 -61 -8.5q-33 -8.5 -55 -21.5zM271 228q-10 1 -20 1.5q-10 0.5 -20 0.5q-24 0 -47 -4q-23 -4 -41 -14q-18 -10 -28.5 -27q-10.5 -17 -10.5 -43q0 -40 19.5 -62q19.5 -22 50.5 -22q42 0 65 20q23 20 32 44z" />
<glyph unicode="&#98;" horiz-adv-x="434" d="M59 700h72v-238h3q41 50 109 50q77 0 115.5 -61q38.5 -61 38.5 -193q0 -135 -51.5 -201q-51.5 -66 -145.5 -66q-46 0 -84 10.5q-38 10.5 -57 24.5zM131 73q14 -8 34.5 -12.5q20.5 -4.5 43.5 -4.5q52 0 82.5 49.5q30.5 49.5 30.5 152.5q0 43 -5.5 77.5q-5.5 34.5 -17 59.5q-11.5 25 -30 38.5q-18.5 13.5 -44.5 13.5q-36 0 -59.5 -21.5q-23.5 -21.5 -34.5 -58.5z" />
<glyph unicode="&#99;" horiz-adv-x="356" d="M335 25q-25 -19 -57 -28q-32 -9 -67 -9q-48 0 -81 18.5q-33 18.5 -53.5 53q-20.5 34.5 -30 83q-9.5 48.5 -9.5 107.5q0 128 45.5 195q45.5 67 130.5 67q39 0 67 -7q28 -7 48 -18v-63q-60 23 -107 23q-54 0 -81.5 -47.5q-27.5 -47.5 -27.5 -149.5q0 -41 6 -77q6 -36 20 -62.5q14 -26.5 36 -42q22 -15.5 55 -15.5q26 0 48.5 9q22.5 9 36.5 21z" />
<glyph unicode="&#100;" horiz-adv-x="433" d="M374 172q0 -51 1 -92.5q1 -41.5 7 -81.5l-49 0l-16 60h-4q-14 -30 -44 -50q-30 -20 -72 -20q-81 0 -120.5 63q-39.5 63 -39.5 198q0 128 48.5 194q48.5 66 133.5 66q29 0 46 -3.5q17 -3.5 37 -11.5l0 206h72zM302 421q-14 12 -31.5 17.5q-17.5 5.5 -46.5 5.5q-53 0 -82.5 -48q-29.5 -48 -29.5 -148q0 -44 5.5 -79.5q5.5 -35.5 17 -61.5q11.5 -26 30 -40q18.5 -14 45.5 -14q72 0 92 85z" />
<glyph unicode="&#101;" horiz-adv-x="413" d="M358 34q-24 -22 -61 -34q-37 -12 -78 -12q-47 0 -81.5 18.5q-34.5 18.5 -57 53q-22.5 34.5 -33 82.5q-10.5 48 -10.5 108q0 128 47 195q47 67 133 67q28 0 55.5 -7q27.5 -7 49.5 -28q22 -21 35.5 -59q13.5 -38 13.5 -99q0 -17 -1.5 -36.5q-1.5 -19.5 -3.5 -40.5l-254 0q0 -43 7 -78q7 -35 22 -59.5q15 -24.5 38.5 -38q23.5 -13.5 58.5 -13.5q27 0 53.5 10q26.5 10 40.5 24zM302 302q2 75 -21 110q-23 35 -63 35q-46 0 -73 -35q-27 -35 -32 -110z" />
<glyph unicode="&#102;" horiz-adv-x="257" d="M16 500h61v28q0 94 27 136q27 42 92 42q26 0 47 -3q21 -3 43 -13l-18 -62q-18 8 -33.5 10.5q-15.5 2.5 -29.5 2.5q-20 0 -31 -8q-11 -8 -16.5 -25q-5.5 -17 -7 -43.5q-1.5 -26.5 -1.5 -64.5l104 0v-65h-104v-435h-72v435l-61 0z" />
<glyph unicode="&#103;" horiz-adv-x="432" d="M374 -23q0 -97 -43 -143q-43 -46 -125 -46q-50 0 -82 8.5q-32 8.5 -52 19.5l21 62q20 -9 44 -17q24 -8 59 -8q61 0 83.5 34q22.5 34 22.5 114v37h-3q-16 -23 -41 -36q-25 -13 -64 -13q-81 0 -119 62.5q-38 62.5 -38 196.5q0 129 49.5 195q49.5 66 146.5 66q47 0 81 -9q34 -9 60 -21zM302 428q-30 16 -77 16q-51 0 -82 -46.5q-31 -46.5 -31 -148.5q0 -42 5 -77.5q5 -35.5 17 -62q12 -26.5 30.5 -41q18.5 -14.5 45.5 -14.5q38 0 60 20q22 20 32 60z" />
<glyph unicode="&#104;" horiz-adv-x="440" d="M315 0v304q0 70 -16.5 106.5q-16.5 36.5 -65.5 36.5q-35 0 -63.5 -25q-28.5 -25 -38.5 -63l0 -359h-72v700h72v-247h3q20 26 49.5 42.5q29.5 16.5 73.5 16.5q33 0 57.5 -9q24.5 -9 40.5 -31q16 -22 24 -58.5q8 -36.5 8 -90.5l0 -323z" />
<glyph unicode="&#105;" horiz-adv-x="217" d="M71 500h72v-500h-72zM58 652q0 24 13.5 39q13.5 15 35.5 15q22 0 36.5 -14.5q14.5 -14.5 14.5 -39.5q0 -24 -14.5 -37.5q-14.5 -13.5 -36.5 -13.5q-22 0 -35.5 14t-13.5 37z" />
<glyph unicode="&#106;" horiz-adv-x="215" d="M72 500h72v-527q0 -103 -33 -148.5q-33 -45.5 -107 -34.5l0 65q22 0 35.5 9q13.5 9 21 27.5q7.5 18.5 9.5 46q2 27.5 2 64.5zM58 652q0 24 13.5 39q13.5 15 35.5 15q22 0 36.5 -14.5q14.5 -14.5 14.5 -39.5q0 -24 -14.5 -37.5q-14.5 -13.5 -36.5 -13.5q-22 0 -35.5 14t-13.5 37z" />
<glyph unicode="&#107;" horiz-adv-x="388" d="M168 225h-37v-225h-72v700h72v-426l33 14l117 212h83l-118 -202l-35 -32l41 -39l129 -227l-87 0z" />
<glyph unicode="&#108;" horiz-adv-x="233" d="M136 119q0 -35 9.5 -50q9.5 -15 26.5 -15q21 0 49 11l7 -58q-13 -8 -36.5 -13q-23.5 -5 -42.5 -5q-38 0 -61.5 23.5q-23.5 23.5 -23.5 82.5v605l72 0z" />
<glyph unicode="&#109;" horiz-adv-x="651" d="M293 0v297q0 40 -2.5 68.5q-2.5 28.5 -10.5 46.5q-8 18 -22 26.5q-14 8.5 -37 8.5q-34 0 -57.5 -26.5q-23.5 -26.5 -32.5 -60.5l0 -360h-72v500h51l13 -53h3q21 29 50 47q29 18 74 18q38 0 62.5 -16.5q24.5 -16.5 38.5 -58.5q18 35 51.5 55q33.5 20 73.5 20q33 0 56.5 -8.5q23.5 -8.5 38 -30q14.5 -21.5 21.5 -57q7 -35.5 7 -89.5v-327h-72v318q0 65 -12.5 97q-12.5 32 -57.5 32q-38 0 -60.5 -23.5q-22.5 -23.5 -31.5 -63.5l0 -360z" />
<glyph unicode="&#110;" horiz-adv-x="439" d="M315 0v305q0 75 -17.5 108.5q-17.5 33.5 -62.5 33.5q-40 0 -66 -24q-26 -24 -38 -59l0 -364h-72v500h52l13 -53h3q19 27 51.5 46q32.5 19 77.5 19q32 0 56.5 -9q24.5 -9 41 -30.5q16.5 -21.5 25 -57.5q8.5 -36 8.5 -91l0 -324z" />
<glyph unicode="&#111;" horiz-adv-x="432" d="M37 250q0 135 46.5 198.5q46.5 63.5 132.5 63.5q92 0 135.5 -65q43.5 -65 43.5 -197q0 -136 -47 -199q-47 -63 -132 -63q-92 0 -135.5 65q-43.5 65 -43.5 197zt0 0zM112 250q0 -44 5.5 -80q5.5 -36 18 -62q12.5 -26 32.5 -40.5q20 -14.5 48 -14.5q52 0 78 46.5q26 46.5 26 150.5q0 43 -5.5 79.5q-5.5 36.5 -18 62.5q-12.5 26 -32.5 40.5q-20 14.5 -48 14.5q-51 0 -77.5 -47t-26.5 -150z" />
<glyph unicode="&#112;" horiz-adv-x="435" d="M59 500h51l11 -54h4q37 66 116 66q79 0 118.5 -59q39.5 -59 39.5 -193q0 -63 -13 -113.5q-13 -50.5 -37 -86q-24 -35.5 -58.5 -54q-34.5 -18.5 -76.5 -18.5q-29 0 -46 3.5q-17 3.5 -37 14.5l0 -206h-72zM131 79q14 -12 31.5 -19q17.5 -7 46.5 -7q53 0 84 54q31 54 31 154q0 42 -5.5 76q-5.5 34 -17.5 58.5q-12 24.5 -30.5 38q-18.5 13.5 -45.5 13.5q-73 0 -94 -89z" />
<glyph unicode="&#113;" horiz-adv-x="432" d="M374 -200h-72v241h-4q-16 -25 -40.5 -39q-24.5 -14 -63.5 -14q-79 0 -118 63.5q-39 63.5 -39 196.5q0 129 51 195q51 66 148 66q42 0 80 -10q38 -10 58 -21zM302 427q-28 17 -79 17q-52 0 -81.5 -48q-29.5 -48 -29.5 -147q0 -42 5 -78q5 -36 16.5 -62.5q11.5 -26.5 30 -41q18.5 -14.5 45.5 -14.5q38 0 60 22q22 22 33 64z" />
<glyph unicode="&#114;" horiz-adv-x="274" d="M59 500h51l13 -53h3q14 29 36.5 45.5q22.5 16.5 54.5 16.5q23 0 52 -9l-14 -73q-26 9 -46 9q-32 0 -52 -18.5q-20 -18.5 -26 -49.5l0 -368l-72 0z" />
<glyph unicode="&#115;" horiz-adv-x="338" d="M51 82q20 -12 47.5 -20.5q27.5 -8.5 56.5 -8.5q33 0 56 16.5q23 16.5 23 53.5q0 31 -14 51q-14 20 -35.5 36q-21.5 16 -46.5 29.5q-25 13.5 -46.5 32.5q-21.5 19 -35.5 45q-14 26 -14 66q0 64 34.5 96.5q34.5 32.5 97.5 32.5q41 0 71 -7.5q30 -7.5 52 -20.5l-19 -60q-19 10 -44 16.5q-25 6.5 -51 6.5q-36 0 -52.5 -15q-16.5 -15 -16.5 -47q0 -25 14 -42.5q14 -17.5 35.5 -32q21.5 -14.5 46.5 -29.5q25 -15 46.5 -35.5q21.5 -20.5 35.5 -49q14 -28.5 14 -71.5q0 -28 -9 -53q-9 -25 -27.5 -43.5q-18.5 -18.5 -46 -29.5q-27.5 -11 -64.5 -11q-44 0 -76 8.5q-32 8.5 -54 22.5z" />
<glyph unicode="&#116;" horiz-adv-x="275" d="M9 500h61v99l72 23v-122h108v-65h-108v-298q0 -44 10.5 -63.5q10.5 -19.5 34.5 -19.5q20 0 34.5 4.5q14.5 4.5 31.5 11.5l14 -57q-22 -11 -48.5 -17.5q-26.5 -6.5 -55.5 -6.5q-50 0 -71.5 32.5q-21.5 32.5 -21.5 105.5v308l-61 0z" />
<glyph unicode="&#117;" horiz-adv-x="434" d="M124 500v-306q0 -76 15.5 -108.5q15.5 -32.5 56.5 -32.5q21 0 37.5 8.5q16.5 8.5 29.5 22.5q13 14 23 32q10 18 16 37l0 347h72v-358q0 -36 2.5 -74.5q2.5 -38.5 7.5 -67.5l-51 0l-18 70h-3q-17 -33 -49 -57.5q-32 -24.5 -80 -24.5q-32 0 -56 8q-24 8 -41 29q-17 21 -25.5 57.5q-8.5 36.5 -8.5 93.5l0 324z" />
<glyph unicode="&#118;" horiz-adv-x="388" d="M180 207l20 -99h2l18 101l88 291h76l-171 -511h-35l-174 511l82 0z" />
<glyph unicode="&#119;" horiz-adv-x="590" d="M326 500l89 -292l18 -96h2l15 98l68 290h68l-133 -511h-41l-101 328l-14 84h-2l-14 -85l-98 -327h-41l-137 511h77l77 -291l12 -97h2l18 99l82 289z" />
<glyph unicode="&#120;" horiz-adv-x="412" d="M161 256l-132 244h86l74 -143l20 -56l21 56l76 143h79l-133 -240l141 -260h-82l-84 157l-22 60l-23 -60l-84 -157l-79 0z" />
<glyph unicode="&#121;" horiz-adv-x="376" d="M183 177l21 -97h5l15 97l76 323h73l-119 -449q-14 -54 -28 -101q-14 -47 -30.5 -81.5q-16.5 -34.5 -37 -54q-20.5 -19.5 -48.5 -19.5q-28 0 -49 9l12 68q14 -5 28 -2q14 3 26.5 17q12.5 14 23 41.5q10.5 27.5 18.5 71.5l-162 500l82 0z" />
<glyph unicode="&#122;" horiz-adv-x="360" d="M32 65l186 327l35 43h-221v65h292v-65l-187 -330l-34 -40h221v-65l-292 0z" />
<glyph unicode="&#123;" horiz-adv-x="282" d="M107 114q0 51 -16.5 70q-16.5 19 -47.5 19l0 65q31 0 47.5 20q16.5 20 16.5 64v247q0 47 18.5 74.5q18.5 27.5 60.5 27.5h74v-65h-39q-23 0 -32.5 -12.5q-9.5 -12.5 -9.5 -44.5v-244q0 -44 -16.5 -67q-16.5 -23 -39.5 -28l0 -6q23 -4 39.5 -30.5q16.5 -26.5 16.5 -68.5v-243q0 -31 9.5 -44q9.5 -13 33.5 -13h38v-65h-74q-79 0 -79 101z" />
<glyph unicode="&#124;" horiz-adv-x="190" d="M65 700h61v-830l-61 0z" />
<glyph unicode="&#125;" horiz-adv-x="282" d="M175 -129q0 -101 -79 -101h-74v65h38q24 0 33.5 13q9.5 13 9.5 44v243q0 42 16.5 68.5q16.5 26.5 39.5 30.5l0 6q-23 5 -39.5 28q-16.5 23 -16.5 67v244q0 32 -9.5 44.5q-9.5 12.5 -32.5 12.5h-39v65h74q42 0 60.5 -27.5q18.5 -27.5 18.5 -74.5v-247q0 -44 16.5 -64q16.5 -20 47.5 -20l0 -65q-31 0 -47.5 -19q-16.5 -19 -16.5 -70z" />
<glyph unicode="&#126;" horiz-adv-x="415" d="M23 361q36 33 65 46q29 13 54 13q23 0 43 -8.5q20 -8.5 38 -18q18 -9.5 35.5 -18q17.5 -8.5 35.5 -8.5q14 0 30 7q16 7 33 26l34 -60q-32 -27 -57 -37.5q-25 -10.5 -46 -10.5q-22 0 -40.5 8.5q-18.5 8.5 -36 19q-17.5 10.5 -35 19q-17.5 8.5 -36.5 8.5q-18 0 -38.5 -10q-20.5 -10 -45.5 -35z" />
<glyph unicode="&#160;" horiz-adv-x="212" />
<glyph unicode="&#161;" horiz-adv-x="247" d="M147 -200h-75v347l15 176h45l15 -176zM160 455q0 -28 -13.5 -42q-13.5 -14 -36.5 -14q-23 0 -36.5 14q-13.5 14 -13.5 42q0 29 13.5 43q13.5 14 36.5 14q23 0 36.5 -14t13.5 -43z" />
<glyph unicode="&#162;" horiz-adv-x="450" d="M382 27q-18 -15 -42.5 -24q-24.5 -9 -50.5 -12l0 -91h-65v90q-41 6 -69 27q-28 21 -45.5 54.5q-17.5 33.5 -25.5 79q-8 45.5 -8 99.5q0 114 38 180q38 66 110 79l0 91h65v-89q27 -2 48 -8q21 -6 38 -16l-20 -63q-15 9 -33.5 14.5q-18.5 5.5 -38.5 7.5l0 -393q25 2 45 11q20 9 33 20zM148 250q3 -36 7.5 -67.5q4.5 -31.5 14.5 -56.5q10 -25 26 -43q16 -18 39 -25l0 385q-43 -11 -63.5 -58t-23.5 -135z" />
<glyph unicode="&#163;" horiz-adv-x="450" d="M42 382h54q-10 29 -17 62q-7 33 -7 78q0 97 46 143.5q46 46.5 124 46.5q49 0 85 -8q36 -8 61 -20l-24 -64q-19 10 -48.5 17.5q-29.5 7.5 -71.5 7.5q-46 0 -71.5 -32q-25.5 -32 -25.5 -94q0 -42 9 -74q9 -32 20 -63l127 0v-65h-104q7 -23 11.5 -49q4.5 -26 4.5 -58q0 -29 -8.5 -63q-8.5 -34 -23.5 -55l-39 -35v-4l59 14h201v-67h-362v67q25 1 43.5 13q18.5 12 30.5 31.5q12 19.5 18 44q6 24.5 6 48.5q0 34 -6 61q-6 27 -14 52l-78 0z" />
<glyph unicode="&#164;" horiz-adv-x="450" d="M46 579l69 -67l19 -31q37 29 91 29q26 0 49.5 -7.5q23.5 -7.5 41.5 -21.5l19 31l70 67l42 -43l-67 -69l-31 -19q28 -39 28 -90q0 -56 -28 -91l31 -19l67 -69l-42 -43l-70 68l-18 30q-39 -28 -92 -28q-54 0 -91 28l-19 -30l-69 -68l-43 43l68 69l30 19q-28 37 -28 91q0 26 7.5 48.5q7.5 22.5 20.5 41.5l-30 19l-68 69zM135 358q0 -41 25 -67.5q25 -26.5 65 -26.5q40 0 65.5 26.5q25.5 26.5 25.5 67.5q0 39 -25.5 66q-25.5 27 -65.5 27q-40 0 -65 -27t-25 -66z" />
<glyph unicode="&#165;" horiz-adv-x="450" d="M89 326h79l-165 374h88l126 -305l13 -61h2l13 63l122 303h81l-164 -374h80v-58h-100v-71h100v-58h-100v-139h-75v139h-100v58h100v71l-100 0z" />
<glyph unicode="&#166;" horiz-adv-x="189" d="M64 206h61v-336h-61zM125 364h-61v336l61 0z" />
<glyph unicode="&#167;" horiz-adv-x="405" d="M45 353q0 31 13 61.5q13 30.5 36 53.5l34 15q-22 17 -37.5 41q-15.5 24 -15.5 66q0 53 33.5 87.5q33.5 34.5 99.5 34.5q42 0 73 -8q31 -8 53 -19l-18 -62q-21 10 -46.5 17q-25.5 7 -53.5 7q-36 0 -52.5 -17q-16.5 -17 -16.5 -42q0 -26 16 -42q16 -16 39.5 -28.5q23.5 -12.5 51 -24.5q27.5 -12 51 -30q23.5 -18 39.5 -45.5q16 -27.5 16 -70.5q0 -31 -12 -62.5q-12 -31.5 -35 -54.5l-36 -14q21 -16 37 -40.5q16 -24.5 16 -65.5q0 -60 -37.5 -91q-37.5 -31 -98.5 -31q-42 0 -72 7.5q-30 7.5 -52 21.5l19 61q19 -11 44 -18q25 -7 53 -7q72 0 72 61q0 24 -16 39.5q-16 15.5 -39.5 28q-23.5 12.5 -51 24.5q-27.5 12 -51 30.5q-23.5 18.5 -39.5 46q-16 27.5 -16 70.5zt0 0zM288 345q0 24 -9.5 40q-9.5 16 -25.5 27.5q-16 11.5 -36.5 21q-20.5 9.5 -42.5 19.5q-24 -14 -40.5 -38q-16.5 -24 -16.5 -60q0 -23 9.5 -39.5q9.5 -16.5 25.5 -29q16 -12.5 36.5 -22q20.5 -9.5 42.5 -19.5q22 14 39.5 41t17.5 59z" />
<glyph unicode="&#168;" horiz-adv-x="365" d="M60 653q0 23 11.5 36q11.5 13 31.5 13q20 0 31.5 -13q11.5 -13 11.5 -36q0 -21 -11.5 -34q-11.5 -13 -31.5 -13q-20 0 -31.5 13q-11.5 13 -11.5 34zt0 0zM219 653q0 23 11.5 36q11.5 13 31.5 13q20 0 31.5 -13q11.5 -13 11.5 -36q0 -21 -11.5 -34q-11.5 -13 -31.5 -13q-20 0 -31.5 13t-11.5 34z" />
<glyph unicode="&#169;" horiz-adv-x="693" d="M50 293q0 70 23.5 125q23.5 55 64 93q40.5 38 94.5 58.5q54 20.5 115 20.5q61 0 115 -20.5q54 -20.5 94.5 -58.5q40.5 -38 64 -93q23.5 -55 23.5 -125q0 -70 -23.5 -125q-23.5 -55 -64 -93.5q-40.5 -38.5 -94.5 -58.5q-54 -20 -115 -20q-68 0 -122.5 20q-54.5 20 -93.5 58.5q-39 38.5 -60 93.5q-21 55 -21 125zt0 0zM110 293q0 -58 18.5 -103q18.5 -45 50.5 -75.5q32 -30.5 75 -46.5q43 -16 93 -16q49 0 92.5 16q43.5 16 75.5 46.5q32 30.5 50.5 75.5q18.5 45 18.5 103q0 58 -18.5 103q-18.5 45 -50.5 75.5q-32 30.5 -75.5 46.5q-43.5 16 -92.5 16q-50 0 -93 -16q-43 -16 -75 -46.5q-32 -30.5 -50.5 -75.5q-18.5 -45 -18.5 -103zt0 0zM446 155q-20 -11 -44 -17q-24 -6 -56 -6q-68 0 -104 43.5q-36 43.5 -36 117.5q0 77 38.5 118.5q38.5 41.5 101.5 41.5q31 0 50 -6q19 -6 44 -17l-22 -55q-19 9 -35.5 13q-16.5 4 -28.5 4q-35 0 -55.5 -22.5q-20.5 -22.5 -20.5 -76.5q0 -99 83 -99q38 0 67 16z" />
<glyph unicode="&#170;" horiz-adv-x="316" d="M52 681q21 11 54.5 19q33.5 8 75.5 8q53 0 72 -26q19 -26 20 -75q-1 -69 -4 -126q-3 -57 8 -101l-50 0l-12 42h-3q-10 -17 -29.5 -31.5q-19.5 -14.5 -52.5 -14.5q-45 0 -70 25.5q-25 25.5 -25 69.5q0 33 14 55q14 22 38 35q24 13 55.5 17.5q31.5 4.5 68.5 2.5q2 40 -6.5 57q-8.5 17 -40.5 17q-29 0 -54.5 -6.5q-25.5 -6.5 -42.5 -14.5zM143 430q30 0 45.5 14.5q15.5 14.5 23.5 29.5l0 57q-21 1 -41 0.5q-20 -0.5 -36 -5.5q-16 -5 -26 -16.5q-10 -11.5 -10 -32.5q0 -20 11 -33.5t33 -13.5z" />
<glyph unicode="&#171;" horiz-adv-x="386" d="M178 259l127 228l48 -33l-80 -153l-38 -41l38 -36l85 -150l-48 -34zM29 259l129 230l50 -34l-82 -154l-38 -41l38 -36l88 -151l-51 -35z" />
<glyph unicode="&#172;" horiz-adv-x="415" d="M36 391h343v-191h-65v122l-278 0z" />
<glyph unicode="&#173;" horiz-adv-x="291" d="M47 320h197v-69l-197 0z" />
<glyph unicode="&#174;" horiz-adv-x="591" d="M72 490q0 54 18 95.5q18 41.5 48.5 70q30.5 28.5 71 43q40.5 14.5 85.5 14.5q47 0 88 -14.5q41 -14.5 71 -43q30 -28.5 47.5 -70q17.5 -41.5 17.5 -95.5q0 -54 -18 -96q-18 -42 -48.5 -70.5q-30.5 -28.5 -71 -43q-40.5 -14.5 -86.5 -14.5q-47 0 -87.5 14.5q-40.5 14.5 -70.5 43q-30 28.5 -47.5 70.5q-17.5 42 -17.5 96zt0 0zM126 490q0 -44 13.5 -76.5q13.5 -32.5 36.5 -54.5q23 -22 53.5 -32.5q30.5 -10.5 65.5 -10.5q37 0 68 10.5q31 10.5 53.5 32q22.5 21.5 35.5 54q13 32.5 13 77.5q0 43 -13.5 75.5q-13.5 32.5 -36.5 54.5q-23 22 -54 32.5q-31 10.5 -66 10.5q-37 0 -68 -10.5q-31 -10.5 -53.5 -32.5q-22.5 -22 -35 -54.5q-12.5 -32.5 -12.5 -75.5zt0 0zM208 599q14 4 38.5 6.5q24.5 2.5 46.5 2.5q35 0 60.5 -15q25.5 -15 25.5 -51q0 -27 -17 -41.5q-17 -14.5 -43 -16.5l24 -11l62 -93h-52l-60 88l-41 13v-101h-44zM283 570q-8 0 -17 -0.5q-9 -0.5 -14 -3.5l0 -60h29q51 0 51 34q0 30 -49 30z" />
<glyph unicode="&#175;" horiz-adv-x="363" d="M60 643h243v-59l-243 0z" />
<glyph unicode="&#176;" horiz-adv-x="342" d="M62 571q0 63 32 102q32 39 85 39q52 0 85 -36.5q33 -36.5 33 -104.5q0 -68 -33 -104.5q-33 -36.5 -85 -36.5q-53 0 -85 36.5q-32 36.5 -32 104.5zt0 0zM119 571q0 -39 16.5 -63.5q16.5 -24.5 43.5 -24.5q27 0 44 24.5q17 24.5 17 63.5q0 39 -17 63.5q-17 24.5 -44 24.5q-27 0 -43.5 -24.5t-16.5 -63.5z" />
<glyph unicode="&#177;" horiz-adv-x="415" d="M35 469h139v155h67v-155h139v-67h-139v-105h-67v105h-139zM35 247h345v-67l-345 0z" />
<glyph unicode="&#178;" horiz-adv-x="330" d="M267 695q0 -32 -8.5 -62.5q-8.5 -30.5 -23 -60q-14.5 -29.5 -34 -58q-19.5 -28.5 -40.5 -56.5l-37 -32v-2l46 15h112v-59h-238v32q21 21 48.5 53.5q27.5 32.5 52.5 69.5q25 37 42 76q17 39 17 74q0 30 -15.5 46q-15.5 16 -38.5 16q-22 0 -42.5 -7q-20.5 -7 -34.5 -17l-20 52q20 16 49.5 24q29.5 8 58.5 8q51 0 78.5 -29t27.5 -83z" />
<glyph unicode="&#179;" horiz-adv-x="330" d="M141 430q38 0 57.5 20.5q19.5 20.5 18.5 57.5q1 32 -16.5 52q-17.5 20 -58.5 20h-44v23l77 119l29 27l-41 -6h-105v57h211v-32l-82 -126l-21 -17v-3l20 3q45 0 70.5 -31.5q25.5 -31.5 24.5 -85.5q1 -61 -36.5 -98q-37.5 -37 -97.5 -37q-29 0 -51 5q-22 5 -39 13l13 56q15 -8 32.5 -12.5t38.5 -4.5z" />
<glyph unicode="&#180;" horiz-adv-x="245" d="M107 720h78v-21l-82 -128l-43 0z" />
<glyph unicode="&#181;" horiz-adv-x="450" d="M125 500v-302q0 -72 20.5 -108.5q20.5 -36.5 67.5 -36.5q42 0 70 25q28 25 41 67l0 355h72v-337q0 -41 2 -82.5q2 -41.5 10 -80.5l-51 0l-23 62h-3q-16 -32 -48 -53q-32 -21 -78 -21q-37 0 -57.5 13q-20.5 13 -34.5 33l-5 0l18 -101v-133h-73l0 700z" />
<glyph unicode="&#182;" horiz-adv-x="403" d="M278 700h61v-830h-61zM148 310q-27 0 -48.5 15.5q-21.5 15.5 -37.5 42.5q-16 27 -24.5 62.5q-8.5 35.5 -8.5 75.5q0 39 9.5 74.5q9.5 35.5 27.5 62q18 26.5 43.5 42q25.5 15.5 58.5 15.5h41v-830l-61 0z" />
<glyph unicode="&#183;" horiz-adv-x="213" d="M57 295q0 28 13.5 42q13.5 14 36.5 14q23 0 36.5 -14q13.5 -14 13.5 -42q0 -29 -13.5 -43q-13.5 -14 -36.5 -14q-23 0 -36.5 14t-13.5 43z" />
<glyph unicode="&#184;" horiz-adv-x="262" d="M156 0l-19 -43q65 -15 65 -75q0 -39 -28.5 -64.5q-28.5 -25.5 -76.5 -25.5q-20 0 -37 4l7 39q23 -2 36.5 1q13.5 3 20.5 9q7 6 9 13.5q2 7.5 2 14.5q0 28 -69 37l40 90z" />
<glyph unicode="&#185;" horiz-adv-x="330" d="M63 437h84v257l6 36l-22 -28l-60 -40l-26 42l125 103h41v-370h75v-57l-223 0z" />
<glyph unicode="&#186;" horiz-adv-x="323" d="M34 542q0 46 9.5 78.5q9.5 32.5 27 53q17.5 20.5 41 29.5q23.5 9 50.5 9q27 0 50.5 -8.5q23.5 -8.5 41 -28q17.5 -19.5 27 -52.5q9.5 -33 9.5 -81q0 -48 -9.5 -81q-9.5 -33 -27 -52.5q-17.5 -19.5 -41 -28q-23.5 -8.5 -50.5 -8.5q-27 0 -50.5 8.5q-23.5 8.5 -41 28q-17.5 19.5 -27 52.5q-9.5 33 -9.5 81zt0 0zM99 542q0 -65 17.5 -90q17.5 -25 45.5 -25q14 0 25.5 5q11.5 5 19.5 17.5q8 12.5 12.5 35q4.5 22.5 4.5 57.5q0 34 -4.5 56.5q-4.5 22.5 -12.5 35.5q-8 13 -19.5 18q-11.5 5 -25.5 5q-15 0 -26.5 -5q-11.5 -5 -19.5 -18q-8 -13 -12.5 -35.5t-4.5 -56.5z" />
<glyph unicode="&#187;" horiz-adv-x="386" d="M208 268l-127 -228l-49 32l81 154l38 41l-38 36l-85 151l48 33zM357 268l-129 -230l-51 33l83 155l38 41l-38 36l-88 152l51 34z" />
<glyph unicode="&#188;" horiz-adv-x="683" d="M505 713l49 -27l-384 -698l-50 28zM636 94h-65v-96h-61v96h-165v34l181 300h45v-278h65zM510 275l7 53h-4l-18 -50l-59 -102l-27 -30l41 4h60zM134 595l6 36l-22 -29l-59 -41l-26 44l124 102h41v-427l-64 0z" />
<glyph unicode="&#189;" horiz-adv-x="701" d="M505 713l49 -27l-384 -698l-50 28zM640 315q0 -32 -8.5 -62.5q-8.5 -30.5 -23 -60q-14.5 -29.5 -34 -58q-19.5 -28.5 -40.5 -56.5l-37 -32v-2l46 15h112v-59h-238v32q21 21 48.5 53.5q27.5 32.5 52.5 69.5q25 37 42 76q17 39 17 74q0 30 -15.5 46q-15.5 16 -38.5 16q-22 0 -42.5 -7q-20.5 -7 -34.5 -17l-20 52q20 16 49.5 24q29.5 8 58.5 8q51 0 78.5 -29q27.5 -29 27.5 -83zt0 0zM134 595l6 36l-22 -29l-59 -41l-26 44l124 102h41v-427l-64 0z" />
<glyph unicode="&#190;" horiz-adv-x="710" d="M533 713l49 -27l-384 -698l-50 28zM664 94h-65v-96h-61v96h-165v34l181 300h45v-278h65zM538 275l7 53h-4l-18 -50l-59 -102l-27 -30l41 4h60zM130 330q38 0 57.5 20.5q19.5 20.5 18.5 57.5q1 32 -16.5 52q-17.5 20 -58.5 20h-44v23l77 119l29 27l-41 -6h-105v57h211v-32l-82 -126l-21 -17v-3l20 3q45 0 70.5 -31.5q25.5 -31.5 24.5 -85.5q1 -61 -36.5 -98q-37.5 -37 -97.5 -37q-29 0 -51 5q-22 5 -39 13l13 56q15 -8 32.5 -12.5t38.5 -4.5z" />
<glyph unicode="&#191;" horiz-adv-x="358" d="M239 323q3 -44 -5.5 -78q-8.5 -34 -23.5 -62.5q-15 -28.5 -32.5 -53.5q-17.5 -25 -33.5 -51.5q-16 -26.5 -26.5 -56q-10.5 -29.5 -10.5 -66.5q0 -46 20 -74q20 -28 68 -28q29 0 57 10.5q28 10.5 50 26.5l28 -56q-30 -20 -65.5 -33q-35.5 -13 -86.5 -13q-72 0 -109 42q-37 42 -37 115q0 43 11 77q11 34 27 62.5q16 28.5 35 54.5q19 26 35.5 53.5q16.5 27.5 27.5 59q11 31.5 11 71.5zM254 455q0 -28 -13.5 -42q-13.5 -14 -36.5 -14q-23 0 -36.5 14q-13.5 14 -13.5 42q0 29 13.5 43q13.5 14 36.5 14q23 0 36.5 -14t13.5 -43z" />
<glyph unicode="&#192;" horiz-adv-x="473" d="M333 196h-198l-56 -196h-74l211 711h41l211 -711h-78zM155 263h160l-61 216l-19 105h-2l-19 -107zM302 752h-65l-127 97v21l99 0z" />
<glyph unicode="&#193;" horiz-adv-x="473" d="M333 196h-198l-56 -196h-74l211 711h41l211 -711h-78zM155 263h160l-61 216l-19 105h-2l-19 -107zM262 870h99v-21l-131 -97l-61 0z" />
<glyph unicode="&#194;" horiz-adv-x="473" d="M333 196h-198l-56 -196h-74l211 711h41l211 -711h-78zM155 263h160l-61 216l-19 105h-2l-19 -107zM213 870h50l102 -102v-21h-66l-47 49l-15 35l-15 -34l-52 -50h-64l0 22z" />
<glyph unicode="&#195;" horiz-adv-x="473" d="M333 196h-198l-56 -196h-74l211 711h41l211 -711h-78zM155 263h160l-61 216l-19 105h-2l-19 -107zM100 780q28 34 51.5 46.5q23.5 12.5 44.5 12.5q16 0 30.5 -5q14.5 -5 28 -10.5q13.5 -5.5 26 -10.5q12.5 -5 25.5 -5q11 0 21.5 4q10.5 4 21.5 16l26 -37q-24 -28 -45 -38q-21 -10 -39 -10q-15 0 -29 5q-14 5 -27.5 10.5q-13.5 5.5 -26.5 10.5q-13 5 -27 5q-14 0 -27.5 -6q-13.5 -6 -29.5 -23z" />
<glyph unicode="&#196;" horiz-adv-x="473" d="M333 196h-198l-56 -196h-74l211 711h41l211 -711h-78zM155 263h160l-61 216l-19 105h-2l-19 -107zM111 794q0 21 12.5 34q12.5 13 34.5 13q21 0 33.5 -13q12.5 -13 12.5 -34q0 -21 -12.5 -33.5q-12.5 -12.5 -33.5 -12.5q-22 0 -34.5 12.5q-12.5 12.5 -12.5 33.5zt0 0zM269 794q0 21 12.5 34q12.5 13 33.5 13q22 0 34.5 -13q12.5 -13 12.5 -34q0 -21 -12.5 -33.5q-12.5 -12.5 -34.5 -12.5q-21 0 -33.5 12.5t-12.5 33.5z" />
<glyph unicode="&#197;" horiz-adv-x="473" d="M148 768q0 37 21 61q21 24 69 23q43 1 66.5 -20.5q23.5 -21.5 23.5 -63.5q0 -31 -16 -52.5q-16 -21.5 -48 -28.5l204 -687h-78l-57 196h-198l-56 -196h-74l204 687q-30 8 -45.5 28.5q-15.5 20.5 -15.5 52.5zt0 0zM155 263h160l-61 216l-19 105h-2l-19 -107zM202 768q0 -18 8.5 -29.5q8.5 -11.5 27.5 -11.5q36 0 36 41q0 43 -36 44q-36 -1 -36 -44z" />
<glyph unicode="&#198;" horiz-adv-x="683" d="M315 589l-26 -98l-103 -225h132v323zM318 199h-165l-90 -199h-81l335 700h313v-69h-237v-237h217v-69h-217v-256h241v-69l-316 0z" />
<glyph unicode="&#199;" horiz-adv-x="458" d="M430 27q-21 -18 -52 -27q-31 -9 -66 -11l-14 -32q65 -15 65 -75q0 -39 -28.5 -64.5q-28.5 -25.5 -76.5 -25.5q-20 0 -37 4l7 39q23 -2 36.5 1q13.5 3 20.5 9q7 6 9 13.5q2 7.5 2 14.5q0 28 -69 37l35 80q-48 4 -88.5 26.5q-40.5 22.5 -69.5 66q-29 43.5 -45 109.5q-16 66 -16 158q0 100 20.5 169q20.5 69 54.5 112q34 43 78.5 62q44.5 19 91.5 19q48 0 79.5 -7q31.5 -7 54.5 -17l-18 -68q-20 11 -47 17q-27 6 -62 6q-35 0 -66 -15.5q-31 -15.5 -55 -50q-24 -34.5 -38 -90.5q-14 -56 -14 -137q0 -146 50 -219q50 -73 133 -73q34 0 61 9.5q27 9.5 46 22.5z" />
<glyph unicode="&#200;" horiz-adv-x="429" d="M64 700h311v-69h-236v-237h217v-69h-217v-256h241v-69h-316zM267 752h-65l-127 97v21l99 0z" />
<glyph unicode="&#201;" horiz-adv-x="429" d="M64 700h311v-69h-236v-237h217v-69h-217v-256h241v-69h-316zM258 870h99v-21l-131 -97l-61 0z" />
<glyph unicode="&#202;" horiz-adv-x="429" d="M64 700h311v-69h-236v-237h217v-69h-217v-256h241v-69h-316zM192 870h50l102 -102v-21h-66l-47 49l-15 35l-15 -34l-52 -50h-64l0 22z" />
<glyph unicode="&#203;" horiz-adv-x="429" d="M64 700h311v-69h-236v-237h217v-69h-217v-256h241v-69h-316zM90 794q0 21 12.5 34q12.5 13 34.5 13q21 0 33.5 -13q12.5 -13 12.5 -34q0 -21 -12.5 -33.5q-12.5 -12.5 -33.5 -12.5q-22 0 -34.5 12.5q-12.5 12.5 -12.5 33.5zt0 0zM248 794q0 21 12.5 34q12.5 13 33.5 13q22 0 34.5 -13q12.5 -13 12.5 -34q0 -21 -12.5 -33.5q-12.5 -12.5 -34.5 -12.5q-21 0 -33.5 12.5t-12.5 33.5z" />
<glyph unicode="&#204;" horiz-adv-x="233" d="M79 700h75v-700h-75zM190 752h-65l-127 97v21l99 0z" />
<glyph unicode="&#205;" horiz-adv-x="233" d="M79 700h75v-700h-75zM140 870h99v-21l-131 -97l-61 0z" />
<glyph unicode="&#206;" horiz-adv-x="233" d="M79 700h75v-700h-75zM93 870h50l102 -102v-21h-66l-47 49l-15 35l-15 -34l-52 -50h-64l0 22z" />
<glyph unicode="&#207;" horiz-adv-x="233" d="M79 700h75v-700h-75zM-9 794q0 21 12.5 34q12.5 13 34.5 13q21 0 33.5 -13q12.5 -13 12.5 -34q0 -21 -12.5 -33.5q-12.5 -12.5 -33.5 -12.5q-22 0 -34.5 12.5q-12.5 12.5 -12.5 33.5zt0 0zM149 794q0 21 12.5 34q12.5 13 33.5 13q22 0 34.5 -13q12.5 -13 12.5 -34q0 -21 -12.5 -33.5q-12.5 -12.5 -34.5 -12.5q-21 0 -33.5 12.5t-12.5 33.5z" />
<glyph unicode="&#208;" horiz-adv-x="531" d="M-1 393h71v307q16 3 35.5 4.5q19.5 1.5 39.5 2q20 0.5 39.5 1q19.5 0.5 36.5 0.5q73 0 124 -25q51 -25 83 -71.5q32 -46.5 46 -111.5q14 -65 14 -145q0 -72 -13.5 -138q-13.5 -66 -45.5 -116q-32 -50 -84.5 -80q-52.5 -30 -131.5 -30q-13 0 -33 0.5q-20 0.5 -41.5 2q-21.5 1.5 -40 2.5q-18.5 1 -28.5 3l0 335h-71zM225 639q-10 0 -21.5 0q-11.5 0 -22.5 -1q-11 -1 -20.5 -2q-9.5 -1 -15.5 -2l0 -241h117v-59h-117v-270q4 -1 14.5 -1.5q10.5 -0.5 22 -1q11.5 -0.5 22 -1q10.5 -0.5 15.5 -0.5q55 0 92 24q37 24 58.5 64.5q21.5 40.5 30.5 94q9 53.5 9 113.5q0 53 -8 104q-8 51 -28.5 90.5q-20.5 39.5 -56 64t-91.5 24.5z" />
<glyph unicode="&#209;" horiz-adv-x="538" d="M171 444l-43 110h-3l11 -110v-444h-72v711h45l259 -454l41 -105h4l-11 105v443h72v-711h-46zM135 780q28 34 51.5 46.5q23.5 12.5 44.5 12.5q16 0 30.5 -5q14.5 -5 28 -10.5q13.5 -5.5 26 -10.5q12.5 -5 25.5 -5q11 0 21.5 4q10.5 4 21.5 16l26 -37q-24 -28 -45 -38q-21 -10 -39 -10q-15 0 -29 5q-14 5 -27.5 10.5q-13.5 5.5 -26.5 10.5q-13 5 -27 5q-14 0 -27.5 -6q-13.5 -6 -29.5 -23z" />
<glyph unicode="&#210;" horiz-adv-x="549" d="M43 350q0 178 57 270q57 92 174 92q63 0 107 -25.5q44 -25.5 71.5 -72.5q27.5 -47 40.5 -114q13 -67 13 -150q0 -178 -57.5 -270q-57.5 -92 -174.5 -92q-62 0 -106 25.5q-44 25.5 -72 72.5q-28 47 -40.5 114q-12.5 67 -12.5 150zt0 0zM122 350q0 -59 8.5 -112q8.5 -53 26.5 -93q18 -40 47 -64q29 -24 70 -24q75 0 114 72q39 72 39 221q0 58 -8.5 111q-8.5 53 -26.5 93.5q-18 40.5 -47 64.5q-29 24 -71 24q-74 0 -113 -72q-39 -72 -39 -221zt0 0zM333 752h-65l-127 97v21l99 0z" />
<glyph unicode="&#211;" horiz-adv-x="549" d="M43 350q0 178 57 270q57 92 174 92q63 0 107 -25.5q44 -25.5 71.5 -72.5q27.5 -47 40.5 -114q13 -67 13 -150q0 -178 -57.5 -270q-57.5 -92 -174.5 -92q-62 0 -106 25.5q-44 25.5 -72 72.5q-28 47 -40.5 114q-12.5 67 -12.5 150zt0 0zM122 350q0 -59 8.5 -112q8.5 -53 26.5 -93q18 -40 47 -64q29 -24 70 -24q75 0 114 72q39 72 39 221q0 58 -8.5 111q-8.5 53 -26.5 93.5q-18 40.5 -47 64.5q-29 24 -71 24q-74 0 -113 -72q-39 -72 -39 -221zt0 0zM335 870h99v-21l-131 -97l-61 0z" />
<glyph unicode="&#212;" horiz-adv-x="549" d="M43 350q0 178 57 270q57 92 174 92q63 0 107 -25.5q44 -25.5 71.5 -72.5q27.5 -47 40.5 -114q13 -67 13 -150q0 -178 -57.5 -270q-57.5 -92 -174.5 -92q-62 0 -106 25.5q-44 25.5 -72 72.5q-28 47 -40.5 114q-12.5 67 -12.5 150zt0 0zM122 350q0 -59 8.5 -112q8.5 -53 26.5 -93q18 -40 47 -64q29 -24 70 -24q75 0 114 72q39 72 39 221q0 58 -8.5 111q-8.5 53 -26.5 93.5q-18 40.5 -47 64.5q-29 24 -71 24q-74 0 -113 -72q-39 -72 -39 -221zt0 0zM250 870h50l102 -102v-21h-66l-47 49l-15 35l-15 -34l-52 -50h-64l0 22z" />
<glyph unicode="&#213;" horiz-adv-x="549" d="M43 350q0 178 57 270q57 92 174 92q63 0 107 -25.5q44 -25.5 71.5 -72.5q27.5 -47 40.5 -114q13 -67 13 -150q0 -178 -57.5 -270q-57.5 -92 -174.5 -92q-62 0 -106 25.5q-44 25.5 -72 72.5q-28 47 -40.5 114q-12.5 67 -12.5 150zt0 0zM122 350q0 -59 8.5 -112q8.5 -53 26.5 -93q18 -40 47 -64q29 -24 70 -24q75 0 114 72q39 72 39 221q0 58 -8.5 111q-8.5 53 -26.5 93.5q-18 40.5 -47 64.5q-29 24 -71 24q-74 0 -113 -72q-39 -72 -39 -221zt0 0zM139 780q28 34 51.5 46.5q23.5 12.5 44.5 12.5q16 0 30.5 -5q14.5 -5 28 -10.5q13.5 -5.5 26 -10.5q12.5 -5 25.5 -5q11 0 21.5 4q10.5 4 21.5 16l26 -37q-24 -28 -45 -38q-21 -10 -39 -10q-15 0 -29 5q-14 5 -27.5 10.5q-13.5 5.5 -26.5 10.5q-13 5 -27 5q-14 0 -27.5 -6q-13.5 -6 -29.5 -23z" />
<glyph unicode="&#214;" horiz-adv-x="549" d="M43 350q0 178 57 270q57 92 174 92q63 0 107 -25.5q44 -25.5 71.5 -72.5q27.5 -47 40.5 -114q13 -67 13 -150q0 -178 -57.5 -270q-57.5 -92 -174.5 -92q-62 0 -106 25.5q-44 25.5 -72 72.5q-28 47 -40.5 114q-12.5 67 -12.5 150zt0 0zM122 350q0 -59 8.5 -112q8.5 -53 26.5 -93q18 -40 47 -64q29 -24 70 -24q75 0 114 72q39 72 39 221q0 58 -8.5 111q-8.5 53 -26.5 93.5q-18 40.5 -47 64.5q-29 24 -71 24q-74 0 -113 -72q-39 -72 -39 -221zt0 0zM149 794q0 21 12.5 34q12.5 13 34.5 13q21 0 33.5 -13q12.5 -13 12.5 -34q0 -21 -12.5 -33.5q-12.5 -12.5 -33.5 -12.5q-22 0 -34.5 12.5q-12.5 12.5 -12.5 33.5zt0 0zM307 794q0 21 12.5 34q12.5 13 33.5 13q22 0 34.5 -13q12.5 -13 12.5 -34q0 -21 -12.5 -33.5q-12.5 -12.5 -34.5 -12.5q-21 0 -33.5 12.5t-12.5 33.5z" />
<glyph unicode="&#215;" horiz-adv-x="415" d="M104 513l104 -122l105 122l49 -46l-109 -128l109 -130l-49 -45l-105 122l-105 -123l-50 45l111 131l-110 128z" />
<glyph unicode="&#216;" horiz-adv-x="549" d="M43 350q0 178 57 270q57 92 174 92q45 0 80.5 -13.5q35.5 -13.5 61.5 -38.5l30 53l48 -27l-41 -73q28 -48 40.5 -114q12.5 -66 12.5 -149q0 -178 -57.5 -270q-57.5 -92 -174.5 -92q-87 0 -140 50h-27l-49 -22l38 69q-28 48 -40.5 114.5q-12.5 66.5 -12.5 150.5zt0 0zM122 350q0 -49 5.5 -93.5q5.5 -44.5 17.5 -82.5l230 412q-18 27 -43 42q-25 15 -58 15q-74 0 -113 -72q-39 -72 -39 -221zt0 0zM427 350q0 48 -5.5 92q-5.5 44 -17.5 81l-229 -412q18 -26 42.5 -40q24.5 -14 56.5 -14q75 0 114 72t39 221z" />
<glyph unicode="&#217;" horiz-adv-x="521" d="M385 700h72v-469q0 -127 -49.5 -183.5q-49.5 -56.5 -140.5 -56.5q-106 0 -154.5 55q-48.5 55 -48.5 169v485h75v-446q0 -54 7 -91q7 -37 23 -60q16 -23 40 -33q24 -10 59 -10q66 0 91.5 46q25.5 46 25.5 148zM326 752h-65l-127 97v21l99 0z" />
<glyph unicode="&#218;" horiz-adv-x="521" d="M385 700h72v-469q0 -127 -49.5 -183.5q-49.5 -56.5 -140.5 -56.5q-106 0 -154.5 55q-48.5 55 -48.5 169v485h75v-446q0 -54 7 -91q7 -37 23 -60q16 -23 40 -33q24 -10 59 -10q66 0 91.5 46q25.5 46 25.5 148zM311 870h99v-21l-131 -97l-61 0z" />
<glyph unicode="&#219;" horiz-adv-x="521" d="M385 700h72v-469q0 -127 -49.5 -183.5q-49.5 -56.5 -140.5 -56.5q-106 0 -154.5 55q-48.5 55 -48.5 169v485h75v-446q0 -54 7 -91q7 -37 23 -60q16 -23 40 -33q24 -10 59 -10q66 0 91.5 46q25.5 46 25.5 148zM240 870h50l102 -102v-21h-66l-47 49l-15 35l-15 -34l-52 -50h-64l0 22z" />
<glyph unicode="&#220;" horiz-adv-x="521" d="M385 700h72v-469q0 -127 -49.5 -183.5q-49.5 -56.5 -140.5 -56.5q-106 0 -154.5 55q-48.5 55 -48.5 169v485h75v-446q0 -54 7 -91q7 -37 23 -60q16 -23 40 -33q24 -10 59 -10q66 0 91.5 46q25.5 46 25.5 148zM135 794q0 21 12.5 34q12.5 13 34.5 13q21 0 33.5 -13q12.5 -13 12.5 -34q0 -21 -12.5 -33.5q-12.5 -12.5 -33.5 -12.5q-22 0 -34.5 12.5q-12.5 12.5 -12.5 33.5zt0 0zM293 794q0 21 12.5 34q12.5 13 33.5 13q22 0 34.5 -13q12.5 -13 12.5 -34q0 -21 -12.5 -33.5q-12.5 -12.5 -34.5 -12.5q-21 0 -33.5 12.5t-12.5 33.5z" />
<glyph unicode="&#221;" horiz-adv-x="455" d="M191 278l-186 422h88l126 -305l13 -61h2l13 63l122 303h81l-184 -421v-279h-75zM282 870h99v-21l-131 -97l-61 0z" />
<glyph unicode="&#222;" horiz-adv-x="452" d="M65 700h75v-78q31 3 64 3q40 0 79 -9.5q39 -9.5 70.5 -33.5q31.5 -24 51 -66q19.5 -42 19.5 -107q0 -63 -18.5 -107q-18.5 -44 -49 -71q-30.5 -27 -70 -39.5q-39.5 -12.5 -81.5 -12.5q-4 0 -13 0q-9 0 -19 0.5q-10 0.5 -19.5 1.5q-9.5 1 -13.5 2l0 -183h-75zM140 252q4 -2 12.5 -2.5q8.5 -0.5 17.5 -1.5q9 -1 17.5 -1q8.5 0 12.5 0q28 0 54 7q26 7 46 25.5q20 18.5 32.5 50q12.5 31.5 12.5 80.5q0 41 -11.5 69q-11.5 28 -30 45.5q-18.5 17.5 -43.5 25q-25 7.5 -52 7.5q-20 0 -38.5 -1q-18.5 -1 -29.5 -4z" />
<glyph unicode="&#223;" horiz-adv-x="488" d="M77 500v25q0 99 41.5 140q41.5 41 112.5 41q33 0 61.5 -9q28.5 -9 50 -26.5q21.5 -17.5 33.5 -43q12 -25.5 12 -58.5q0 -33 -16 -56.5q-16 -23.5 -34.5 -42.5q-18.5 -19 -34.5 -38q-16 -19 -16 -43q0 -23 12.5 -39q12.5 -16 31 -30q18.5 -14 40.5 -28.5q22 -14.5 40.5 -34.5q18.5 -20 31 -48.5q12.5 -28.5 12.5 -70.5q0 -28 -10 -55q-10 -27 -29 -48q-19 -21 -47 -34q-28 -13 -65 -13q-37 0 -60.5 6q-23.5 6 -45.5 20l20 61q21 -12 36.5 -17.5q15.5 -5.5 43.5 -5.5q34 0 59.5 23q25.5 23 25.5 61q0 31 -12.5 51.5q-12.5 20.5 -31.5 36q-19 15.5 -40.5 29q-21.5 13.5 -40.5 31q-19 17.5 -31.5 41.5q-12.5 24 -12.5 61q0 33 16 56q16 23 35 42.5q19 19.5 35 38.5q16 19 16 43q0 17 -7.5 31q-7.5 14 -19.5 23.5q-12 9.5 -26.5 15q-14.5 5.5 -29.5 5.5q-22 0 -38 -6.5q-16 -6.5 -26 -22.5q-10 -16 -15 -43.5q-5 -27.5 -5 -69.5v-499h-72v435h-61l0 65z" />
<glyph unicode="&#224;" horiz-adv-x="400" d="M54 470q29 18 70.5 28q41.5 10 87.5 10q42 0 67.5 -12.5q25.5 -12.5 40 -34q14.5 -21.5 19 -49q4.5 -27.5 4.5 -57.5q0 -60 -2.5 -117q-2.5 -57 -2.5 -108q0 -38 2.5 -70.5q2.5 -32.5 9.5 -61.5l-55 0l-17 59h-4q-15 -26 -44 -45q-29 -19 -78 -19q-54 0 -88.5 37.5q-34.5 37.5 -34.5 103.5q0 43 14.5 72q14.5 29 41 47q26.5 18 63 25.5q36.5 7.5 81.5 7.5q10 0 20 0q10 0 21 -1q3 31 3 55q0 57 -17 80q-17 23 -62 23q-28 0 -61 -8.5q-33 -8.5 -55 -21.5zM271 228q-10 1 -20 1.5q-10 0.5 -20 0.5q-24 0 -47 -4q-23 -4 -41 -14q-18 -10 -28.5 -27q-10.5 -17 -10.5 -43q0 -40 19.5 -62q19.5 -22 50.5 -22q42 0 65 20q23 20 32 44zM244 571h-41l-94 128v21l83 0z" />
<glyph unicode="&#225;" horiz-adv-x="400" d="M54 470q29 18 70.5 28q41.5 10 87.5 10q42 0 67.5 -12.5q25.5 -12.5 40 -34q14.5 -21.5 19 -49q4.5 -27.5 4.5 -57.5q0 -60 -2.5 -117q-2.5 -57 -2.5 -108q0 -38 2.5 -70.5q2.5 -32.5 9.5 -61.5l-55 0l-17 59h-4q-15 -26 -44 -45q-29 -19 -78 -19q-54 0 -88.5 37.5q-34.5 37.5 -34.5 103.5q0 43 14.5 72q14.5 29 41 47q26.5 18 63 25.5q36.5 7.5 81.5 7.5q10 0 20 0q10 0 21 -1q3 31 3 55q0 57 -17 80q-17 23 -62 23q-28 0 -61 -8.5q-33 -8.5 -55 -21.5zM271 228q-10 1 -20 1.5q-10 0.5 -20 0.5q-24 0 -47 -4q-23 -4 -41 -14q-18 -10 -28.5 -27q-10.5 -17 -10.5 -43q0 -40 19.5 -62q19.5 -22 50.5 -22q42 0 65 20q23 20 32 44zM194 720h78v-21l-82 -128l-43 0z" />
<glyph unicode="&#226;" horiz-adv-x="400" d="M54 470q29 18 70.5 28q41.5 10 87.5 10q42 0 67.5 -12.5q25.5 -12.5 40 -34q14.5 -21.5 19 -49q4.5 -27.5 4.5 -57.5q0 -60 -2.5 -117q-2.5 -57 -2.5 -108q0 -38 2.5 -70.5q2.5 -32.5 9.5 -61.5l-55 0l-17 59h-4q-15 -26 -44 -45q-29 -19 -78 -19q-54 0 -88.5 37.5q-34.5 37.5 -34.5 103.5q0 43 14.5 72q14.5 29 41 47q26.5 18 63 25.5q36.5 7.5 81.5 7.5q10 0 20 0q10 0 21 -1q3 31 3 55q0 57 -17 80q-17 23 -62 23q-28 0 -61 -8.5q-33 -8.5 -55 -21.5zM271 228q-10 1 -20 1.5q-10 0.5 -20 0.5q-24 0 -47 -4q-23 -4 -41 -14q-18 -10 -28.5 -27q-10.5 -17 -10.5 -43q0 -40 19.5 -62q19.5 -22 50.5 -22q42 0 65 20q23 20 32 44zM190 732h35l89 -182h-63l-32 66l-16 58l-17 -58l-36 -66l-59 0z" />
<glyph unicode="&#227;" horiz-adv-x="400" d="M54 470q29 18 70.5 28q41.5 10 87.5 10q42 0 67.5 -12.5q25.5 -12.5 40 -34q14.5 -21.5 19 -49q4.5 -27.5 4.5 -57.5q0 -60 -2.5 -117q-2.5 -57 -2.5 -108q0 -38 2.5 -70.5q2.5 -32.5 9.5 -61.5l-55 0l-17 59h-4q-15 -26 -44 -45q-29 -19 -78 -19q-54 0 -88.5 37.5q-34.5 37.5 -34.5 103.5q0 43 14.5 72q14.5 29 41 47q26.5 18 63 25.5q36.5 7.5 81.5 7.5q10 0 20 0q10 0 21 -1q3 31 3 55q0 57 -17 80q-17 23 -62 23q-28 0 -61 -8.5q-33 -8.5 -55 -21.5zM271 228q-10 1 -20 1.5q-10 0.5 -20 0.5q-24 0 -47 -4q-23 -4 -41 -14q-18 -10 -28.5 -27q-10.5 -17 -10.5 -43q0 -40 19.5 -62q19.5 -22 50.5 -22q42 0 65 20q23 20 32 44zM80 653q27 34 48 46.5q21 12.5 38 12.5q14 0 26 -6q12 -6 23.5 -12.5q11.5 -6.5 22 -12.5q10.5 -6 22.5 -6q9 0 18.5 4.5q9.5 4.5 20.5 16.5l23 -38q-24 -29 -42.5 -40q-18.5 -11 -34.5 -11q-14 0 -26 5.5q-12 5.5 -23.5 12.5q-11.5 7 -22.5 12.5q-11 5.5 -23 5.5q-11 0 -22 -5.5q-11 -5.5 -24 -19.5z" />
<glyph unicode="&#228;" horiz-adv-x="400" d="M54 470q29 18 70.5 28q41.5 10 87.5 10q42 0 67.5 -12.5q25.5 -12.5 40 -34q14.5 -21.5 19 -49q4.5 -27.5 4.5 -57.5q0 -60 -2.5 -117q-2.5 -57 -2.5 -108q0 -38 2.5 -70.5q2.5 -32.5 9.5 -61.5l-55 0l-17 59h-4q-15 -26 -44 -45q-29 -19 -78 -19q-54 0 -88.5 37.5q-34.5 37.5 -34.5 103.5q0 43 14.5 72q14.5 29 41 47q26.5 18 63 25.5q36.5 7.5 81.5 7.5q10 0 20 0q10 0 21 -1q3 31 3 55q0 57 -17 80q-17 23 -62 23q-28 0 -61 -8.5q-33 -8.5 -55 -21.5zM271 228q-10 1 -20 1.5q-10 0.5 -20 0.5q-24 0 -47 -4q-23 -4 -41 -14q-18 -10 -28.5 -27q-10.5 -17 -10.5 -43q0 -40 19.5 -62q19.5 -22 50.5 -22q42 0 65 20q23 20 32 44zM78 653q0 23 11.5 36q11.5 13 31.5 13q20 0 31.5 -13q11.5 -13 11.5 -36q0 -21 -11.5 -34q-11.5 -13 -31.5 -13q-20 0 -31.5 13q-11.5 13 -11.5 34zt0 0zM237 653q0 23 11.5 36q11.5 13 31.5 13q20 0 31.5 -13q11.5 -13 11.5 -36q0 -21 -11.5 -34q-11.5 -13 -31.5 -13q-20 0 -31.5 13t-11.5 34z" />
<glyph unicode="&#229;" horiz-adv-x="400" d="M54 470q29 18 70.5 28q41.5 10 87.5 10q42 0 67.5 -12.5q25.5 -12.5 40 -34q14.5 -21.5 19 -49q4.5 -27.5 4.5 -57.5q0 -60 -2.5 -117q-2.5 -57 -2.5 -108q0 -38 2.5 -70.5q2.5 -32.5 9.5 -61.5l-55 0l-17 59h-4q-15 -26 -44 -45q-29 -19 -78 -19q-54 0 -88.5 37.5q-34.5 37.5 -34.5 103.5q0 43 14.5 72q14.5 29 41 47q26.5 18 63 25.5q36.5 7.5 81.5 7.5q10 0 20 0q10 0 21 -1q3 31 3 55q0 57 -17 80q-17 23 -62 23q-28 0 -61 -8.5q-33 -8.5 -55 -21.5zM271 228q-10 1 -20 1.5q-10 0.5 -20 0.5q-24 0 -47 -4q-23 -4 -41 -14q-18 -10 -28.5 -27q-10.5 -17 -10.5 -43q0 -40 19.5 -62q19.5 -22 50.5 -22q42 0 65 20q23 20 32 44zM118 643q0 42 22 65.5q22 23.5 60 23.5q36 0 59.5 -21q23.5 -21 23.5 -68q0 -40 -22.5 -64q-22.5 -24 -60.5 -24q-38 0 -60 22.5q-22 22.5 -22 65.5zt0 0zM166 643q0 -23 10 -34.5q10 -11.5 24 -11.5q16 0 25.5 11q9.5 11 9.5 35q0 24 -10.5 35.5q-10.5 11.5 -24.5 11.5q-14 0 -24 -11t-10 -36z" />
<glyph unicode="&#230;" horiz-adv-x="642" d="M173 57q21 0 37.5 6.5q16.5 6.5 28.5 17q12 10.5 20 23q8 12.5 12 25.5l0 101q-10 1 -20 1.5q-10 0.5 -20 0.5q-24 0 -47 -4q-23 -4 -41 -14q-18 -10 -28.5 -27q-10.5 -17 -10.5 -43q0 -35 19 -61q19 -26 50 -26zt0 0zM294 73q-20 -35 -54.5 -58q-34.5 -23 -85.5 -23q-56 0 -90.5 39q-34.5 39 -34.5 105q0 44 14.5 73.5q14.5 29.5 40.5 47q26 17.5 62 25q36 7.5 80 7.5q11 0 22 -0.5q11 -0.5 22 -1.5q3 31 3 55q0 57 -17 79.5q-17 22.5 -62 22.5q-28 0 -62 -10q-34 -10 -57 -26l-22 56q31 23 72.5 33.5q41.5 10.5 86.5 10.5q84 0 109 -64q20 36 55.5 52q35.5 16 70.5 16q28 0 55.5 -7.5q27.5 -7.5 49.5 -29q22 -21.5 35.5 -60q13.5 -38.5 13.5 -99.5q0 -17 -1.5 -36q-1.5 -19 -3.5 -40l-253 0q1 -92 28 -139.5q27 -47.5 95 -47.5q28 0 55 10q27 10 41 22l26 -53q-25 -20 -61 -32q-36 -12 -80 -12q-50 0 -89 21.5q-39 21.5 -58 63.5zM447 447q-45 0 -72 -36q-27 -36 -32 -112l188 0q2 75 -20.5 111.5t-63.5 36.5z" />
<glyph unicode="&#231;" horiz-adv-x="356" d="M335 25q-20 -15 -44 -23.5q-24 -8.5 -50 -11.5l-14 -33q65 -15 65 -75q0 -39 -28.5 -64.5q-28.5 -25.5 -76.5 -25.5q-20 0 -37 4l7 39q23 -2 36.5 1q13.5 3 20.5 9q7 6 9 13.5q2 7.5 2 14.5q0 28 -69 37l35 79q-42 4 -71.5 24.5q-29.5 20.5 -47.5 54q-18 33.5 -26.5 80q-8.5 46.5 -8.5 102.5q0 128 45.5 195q45.5 67 130.5 67q39 0 67 -7q28 -7 48 -18v-62q-58 22 -107 22q-54 0 -81.5 -47.5q-27.5 -47.5 -27.5 -149.5q0 -41 6 -76.5q6 -35.5 20 -62q14 -26.5 36 -41.5q22 -15 55 -15q26 0 48.5 8.5q22.5 8.5 36.5 20.5z" />
<glyph unicode="&#232;" horiz-adv-x="413" d="M358 34q-24 -22 -61 -34q-37 -12 -78 -12q-47 0 -81.5 18.5q-34.5 18.5 -57 53q-22.5 34.5 -33 82.5q-10.5 48 -10.5 108q0 128 47 195q47 67 133 67q28 0 55.5 -7q27.5 -7 49.5 -28q22 -21 35.5 -59q13.5 -38 13.5 -99q0 -17 -1.5 -36.5q-1.5 -19.5 -3.5 -40.5l-254 0q0 -43 7 -78q7 -35 22 -59.5q15 -24.5 38.5 -38q23.5 -13.5 58.5 -13.5q27 0 53.5 10q26.5 10 40.5 24zM302 302q2 75 -21 110q-23 35 -63 35q-46 0 -73 -35q-27 -35 -32 -110zM261 571h-41l-94 128v21l83 0z" />
<glyph unicode="&#233;" horiz-adv-x="413" d="M358 34q-24 -22 -61 -34q-37 -12 -78 -12q-47 0 -81.5 18.5q-34.5 18.5 -57 53q-22.5 34.5 -33 82.5q-10.5 48 -10.5 108q0 128 47 195q47 67 133 67q28 0 55.5 -7q27.5 -7 49.5 -28q22 -21 35.5 -59q13.5 -38 13.5 -99q0 -17 -1.5 -36.5q-1.5 -19.5 -3.5 -40.5l-254 0q0 -43 7 -78q7 -35 22 -59.5q15 -24.5 38.5 -38q23.5 -13.5 58.5 -13.5q27 0 53.5 10q26.5 10 40.5 24zM302 302q2 75 -21 110q-23 35 -63 35q-46 0 -73 -35q-27 -35 -32 -110zM232 720h78v-21l-82 -128l-43 0z" />
<glyph unicode="&#234;" horiz-adv-x="413" d="M358 34q-24 -22 -61 -34q-37 -12 -78 -12q-47 0 -81.5 18.5q-34.5 18.5 -57 53q-22.5 34.5 -33 82.5q-10.5 48 -10.5 108q0 128 47 195q47 67 133 67q28 0 55.5 -7q27.5 -7 49.5 -28q22 -21 35.5 -59q13.5 -38 13.5 -99q0 -17 -1.5 -36.5q-1.5 -19.5 -3.5 -40.5l-254 0q0 -43 7 -78q7 -35 22 -59.5q15 -24.5 38.5 -38q23.5 -13.5 58.5 -13.5q27 0 53.5 10q26.5 10 40.5 24zM302 302q2 75 -21 110q-23 35 -63 35q-46 0 -73 -35q-27 -35 -32 -110zM197 732h35l89 -182h-63l-32 66l-16 58l-17 -58l-36 -66l-59 0z" />
<glyph unicode="&#235;" horiz-adv-x="413" d="M358 34q-24 -22 -61 -34q-37 -12 -78 -12q-47 0 -81.5 18.5q-34.5 18.5 -57 53q-22.5 34.5 -33 82.5q-10.5 48 -10.5 108q0 128 47 195q47 67 133 67q28 0 55.5 -7q27.5 -7 49.5 -28q22 -21 35.5 -59q13.5 -38 13.5 -99q0 -17 -1.5 -36.5q-1.5 -19.5 -3.5 -40.5l-254 0q0 -43 7 -78q7 -35 22 -59.5q15 -24.5 38.5 -38q23.5 -13.5 58.5 -13.5q27 0 53.5 10q26.5 10 40.5 24zM302 302q2 75 -21 110q-23 35 -63 35q-46 0 -73 -35q-27 -35 -32 -110zM93 653q0 23 11.5 36q11.5 13 31.5 13q20 0 31.5 -13q11.5 -13 11.5 -36q0 -21 -11.5 -34q-11.5 -13 -31.5 -13q-20 0 -31.5 13q-11.5 13 -11.5 34zt0 0zM252 653q0 23 11.5 36q11.5 13 31.5 13q20 0 31.5 -13q11.5 -13 11.5 -36q0 -21 -11.5 -34q-11.5 -13 -31.5 -13q-20 0 -31.5 13t-11.5 34z" />
<glyph unicode="&#236;" horiz-adv-x="217" d="M71 500h72v-500h-72zM139 571h-41l-94 128v21l83 0z" />
<glyph unicode="&#237;" horiz-adv-x="217" d="M71 500h72v-500h-72zM123 720h78v-21l-82 -128l-43 0z" />
<glyph unicode="&#238;" horiz-adv-x="217" d="M71 500h72v-500h-72zM93 732h35l89 -182h-63l-32 66l-16 58l-17 -58l-36 -66l-59 0z" />
<glyph unicode="&#239;" horiz-adv-x="217" d="M71 500h72v-500h-72zM-14 653q0 23 11.5 36q11.5 13 31.5 13q20 0 31.5 -13q11.5 -13 11.5 -36q0 -21 -11.5 -34q-11.5 -13 -31.5 -13q-20 0 -31.5 13q-11.5 13 -11.5 34zt0 0zM145 653q0 23 11.5 36q11.5 13 31.5 13q20 0 31.5 -13q11.5 -13 11.5 -36q0 -21 -11.5 -34q-11.5 -13 -31.5 -13q-20 0 -31.5 13t-11.5 34z" />
<glyph unicode="&#240;" horiz-adv-x="450" d="M169 589l57 38q-32 26 -67 41l32 44q16 -8 38 -20q22 -12 46 -33l60 40l24 -39l-50 -33q20 -23 38 -54q18 -31 32 -71.5q14 -40.5 22 -91.5q8 -51 8 -114q0 -86 -14.5 -144.5q-14.5 -58.5 -39.5 -95q-25 -36.5 -58.5 -52.5q-33.5 -16 -72.5 -16q-48 0 -83 19q-35 19 -57 53.5q-22 34.5 -32.5 83q-10.5 48.5 -10.5 107.5q0 57 12 104.5q12 47.5 35.5 82q23.5 34.5 57 53.5q33.5 19 76.5 19q35 0 62 -12q27 -12 41 -30q-11 38 -27.5 69.5q-16.5 31.5 -37.5 56.5l-66 -43zM115 251q0 -105 32 -151q32 -46 82 -46q23 0 43 13q20 13 34.5 41q14.5 28 23 73q8.5 45 8.5 109q0 10 -0.5 24.5q-0.5 14.5 -1.5 29q-1 14.5 -2.5 27.5q-1.5 13 -2.5 21q-14 26 -43 39q-29 13 -58 13q-30 0 -51.5 -14q-21.5 -14 -36 -39.5q-14.5 -25.5 -21 -61t-6.5 -78.5z" />
<glyph unicode="&#241;" horiz-adv-x="439" d="M315 0v305q0 75 -17.5 108.5q-17.5 33.5 -62.5 33.5q-40 0 -66 -24q-26 -24 -38 -59l0 -364h-72v500h52l13 -53h3q19 27 51.5 46q32.5 19 77.5 19q32 0 56.5 -9q24.5 -9 41 -30.5q16.5 -21.5 25 -57.5q8.5 -36 8.5 -91v-324zM100 653q27 34 48 46.5q21 12.5 38 12.5q14 0 26 -6q12 -6 23.5 -12.5q11.5 -6.5 22 -12.5q10.5 -6 22.5 -6q9 0 18.5 4.5q9.5 4.5 20.5 16.5l23 -38q-24 -29 -42.5 -40q-18.5 -11 -34.5 -11q-14 0 -26 5.5q-12 5.5 -23.5 12.5q-11.5 7 -22.5 12.5q-11 5.5 -23 5.5q-11 0 -22 -5.5q-11 -5.5 -24 -19.5z" />
<glyph unicode="&#242;" horiz-adv-x="432" d="M37 250q0 135 46.5 198.5q46.5 63.5 132.5 63.5q92 0 135.5 -65q43.5 -65 43.5 -197q0 -136 -47 -199q-47 -63 -132 -63q-92 0 -135.5 65q-43.5 65 -43.5 197zt0 0zM112 250q0 -44 5.5 -80q5.5 -36 18 -62q12.5 -26 32.5 -40.5q20 -14.5 48 -14.5q52 0 78 46.5q26 46.5 26 150.5q0 43 -5.5 79.5q-5.5 36.5 -18 62.5q-12.5 26 -32.5 40.5q-20 14.5 -48 14.5q-51 0 -77.5 -47q-26.5 -47 -26.5 -150zt0 0zM254 571h-41l-94 128v21l83 0z" />
<glyph unicode="&#243;" horiz-adv-x="432" d="M37 250q0 135 46.5 198.5q46.5 63.5 132.5 63.5q92 0 135.5 -65q43.5 -65 43.5 -197q0 -136 -47 -199q-47 -63 -132 -63q-92 0 -135.5 65q-43.5 65 -43.5 197zt0 0zM112 250q0 -44 5.5 -80q5.5 -36 18 -62q12.5 -26 32.5 -40.5q20 -14.5 48 -14.5q52 0 78 46.5q26 46.5 26 150.5q0 43 -5.5 79.5q-5.5 36.5 -18 62.5q-12.5 26 -32.5 40.5q-20 14.5 -48 14.5q-51 0 -77.5 -47q-26.5 -47 -26.5 -150zt0 0zM227 720h78v-21l-82 -128l-43 0z" />
<glyph unicode="&#244;" horiz-adv-x="432" d="M37 250q0 135 46.5 198.5q46.5 63.5 132.5 63.5q92 0 135.5 -65q43.5 -65 43.5 -197q0 -136 -47 -199q-47 -63 -132 -63q-92 0 -135.5 65q-43.5 65 -43.5 197zt0 0zM112 250q0 -44 5.5 -80q5.5 -36 18 -62q12.5 -26 32.5 -40.5q20 -14.5 48 -14.5q52 0 78 46.5q26 46.5 26 150.5q0 43 -5.5 79.5q-5.5 36.5 -18 62.5q-12.5 26 -32.5 40.5q-20 14.5 -48 14.5q-51 0 -77.5 -47q-26.5 -47 -26.5 -150zt0 0zM206 732h35l89 -182h-63l-32 66l-16 58l-17 -58l-36 -66l-59 0z" />
<glyph unicode="&#245;" horiz-adv-x="432" d="M37 250q0 135 46.5 198.5q46.5 63.5 132.5 63.5q92 0 135.5 -65q43.5 -65 43.5 -197q0 -136 -47 -199q-47 -63 -132 -63q-92 0 -135.5 65q-43.5 65 -43.5 197zt0 0zM112 250q0 -44 5.5 -80q5.5 -36 18 -62q12.5 -26 32.5 -40.5q20 -14.5 48 -14.5q52 0 78 46.5q26 46.5 26 150.5q0 43 -5.5 79.5q-5.5 36.5 -18 62.5q-12.5 26 -32.5 40.5q-20 14.5 -48 14.5q-51 0 -77.5 -47q-26.5 -47 -26.5 -150zt0 0zM96 653q27 34 48 46.5q21 12.5 38 12.5q14 0 26 -6q12 -6 23.5 -12.5q11.5 -6.5 22 -12.5q10.5 -6 22.5 -6q9 0 18.5 4.5q9.5 4.5 20.5 16.5l23 -38q-24 -29 -42.5 -40q-18.5 -11 -34.5 -11q-14 0 -26 5.5q-12 5.5 -23.5 12.5q-11.5 7 -22.5 12.5q-11 5.5 -23 5.5q-11 0 -22 -5.5q-11 -5.5 -24 -19.5z" />
<glyph unicode="&#246;" horiz-adv-x="432" d="M37 250q0 135 46.5 198.5q46.5 63.5 132.5 63.5q92 0 135.5 -65q43.5 -65 43.5 -197q0 -136 -47 -199q-47 -63 -132 -63q-92 0 -135.5 65q-43.5 65 -43.5 197zt0 0zM112 250q0 -44 5.5 -80q5.5 -36 18 -62q12.5 -26 32.5 -40.5q20 -14.5 48 -14.5q52 0 78 46.5q26 46.5 26 150.5q0 43 -5.5 79.5q-5.5 36.5 -18 62.5q-12.5 26 -32.5 40.5q-20 14.5 -48 14.5q-51 0 -77.5 -47q-26.5 -47 -26.5 -150zt0 0zM94 653q0 23 11.5 36q11.5 13 31.5 13q20 0 31.5 -13q11.5 -13 11.5 -36q0 -21 -11.5 -34q-11.5 -13 -31.5 -13q-20 0 -31.5 13q-11.5 13 -11.5 34zt0 0zM253 653q0 23 11.5 36q11.5 13 31.5 13q20 0 31.5 -13q11.5 -13 11.5 -36q0 -21 -11.5 -34q-11.5 -13 -31.5 -13q-20 0 -31.5 13t-11.5 34z" />
<glyph unicode="&#247;" horiz-adv-x="415" d="M35 373h344v-67h-344zM157 508q0 28 13.5 42q13.5 14 36.5 14q23 0 36.5 -14q13.5 -14 13.5 -42q0 -29 -13.5 -43q-13.5 -14 -36.5 -14q-23 0 -36.5 14q-13.5 14 -13.5 43zt0 0zM157 171q0 28 13.5 42q13.5 14 36.5 14q23 0 36.5 -14q13.5 -14 13.5 -42q0 -29 -13.5 -43q-13.5 -14 -36.5 -14q-23 0 -36.5 14t-13.5 43z" />
<glyph unicode="&#248;" horiz-adv-x="436" d="M40 250q0 131 46.5 196.5q46.5 65.5 132.5 65.5q58 0 98 -29l19 32l49 -30l-27 -48q20 -33 30 -80q10 -47 10 -107q0 -133 -46.5 -197.5q-46.5 -64.5 -132.5 -64.5q-62 0 -103 32l-21 -34l-49 32l30 51q-36 66 -36 181zt0 0zM323 250q0 32 -2.5 60.5q-2.5 28.5 -9.5 51.5l-160 -275q26 -34 68 -34q52 0 78 47q26 47 26 150zt0 0zM115 250q0 -30 2 -57q2 -27 8 -50l157 275q-12 14 -27.5 21.5q-15.5 7.5 -35.5 7.5q-51 0 -77.5 -47t-26.5 -150z" />
<glyph unicode="&#249;" horiz-adv-x="434" d="M124 500v-306q0 -76 15.5 -108.5q15.5 -32.5 56.5 -32.5q21 0 37.5 8.5q16.5 8.5 29.5 22.5q13 14 23 32q10 18 16 37l0 347h72v-358q0 -36 2.5 -74.5q2.5 -38.5 7.5 -67.5l-51 0l-18 70h-3q-17 -33 -49 -57.5q-32 -24.5 -80 -24.5q-32 0 -56 8q-24 8 -41 29q-17 21 -25.5 57.5q-8.5 36.5 -8.5 93.5v324zM249 571h-41l-94 128v21l83 0z" />
<glyph unicode="&#250;" horiz-adv-x="434" d="M124 500v-306q0 -76 15.5 -108.5q15.5 -32.5 56.5 -32.5q21 0 37.5 8.5q16.5 8.5 29.5 22.5q13 14 23 32q10 18 16 37l0 347h72v-358q0 -36 2.5 -74.5q2.5 -38.5 7.5 -67.5l-51 0l-18 70h-3q-17 -33 -49 -57.5q-32 -24.5 -80 -24.5q-32 0 -56 8q-24 8 -41 29q-17 21 -25.5 57.5q-8.5 36.5 -8.5 93.5v324zM226 720h78v-21l-82 -128l-43 0z" />
<glyph unicode="&#251;" horiz-adv-x="434" d="M124 500v-306q0 -76 15.5 -108.5q15.5 -32.5 56.5 -32.5q21 0 37.5 8.5q16.5 8.5 29.5 22.5q13 14 23 32q10 18 16 37l0 347h72v-358q0 -36 2.5 -74.5q2.5 -38.5 7.5 -67.5l-51 0l-18 70h-3q-17 -33 -49 -57.5q-32 -24.5 -80 -24.5q-32 0 -56 8q-24 8 -41 29q-17 21 -25.5 57.5q-8.5 36.5 -8.5 93.5v324zM203 732h35l89 -182h-63l-32 66l-16 58l-17 -58l-36 -66l-59 0z" />
<glyph unicode="&#252;" horiz-adv-x="434" d="M124 500v-306q0 -76 15.5 -108.5q15.5 -32.5 56.5 -32.5q21 0 37.5 8.5q16.5 8.5 29.5 22.5q13 14 23 32q10 18 16 37l0 347h72v-358q0 -36 2.5 -74.5q2.5 -38.5 7.5 -67.5l-51 0l-18 70h-3q-17 -33 -49 -57.5q-32 -24.5 -80 -24.5q-32 0 -56 8q-24 8 -41 29q-17 21 -25.5 57.5q-8.5 36.5 -8.5 93.5v324zM95 653q0 23 11.5 36q11.5 13 31.5 13q20 0 31.5 -13q11.5 -13 11.5 -36q0 -21 -11.5 -34q-11.5 -13 -31.5 -13q-20 0 -31.5 13q-11.5 13 -11.5 34zt0 0zM254 653q0 23 11.5 36q11.5 13 31.5 13q20 0 31.5 -13q11.5 -13 11.5 -36q0 -21 -11.5 -34q-11.5 -13 -31.5 -13q-20 0 -31.5 13t-11.5 34z" />
<glyph unicode="&#253;" horiz-adv-x="376" d="M183 177l21 -97h5l15 97l76 323h73l-119 -449q-14 -54 -28 -101q-14 -47 -30.5 -81.5q-16.5 -34.5 -37 -54q-20.5 -19.5 -48.5 -19.5q-28 0 -49 9l12 68q14 -5 28 -2q14 3 26.5 17q12.5 14 23 41.5q10.5 27.5 18.5 71.5l-162 500h82zM219 720h78v-21l-82 -128l-43 0z" />
<glyph unicode="&#254;" horiz-adv-x="435" d="M59 700h72v-240h3q16 24 42.5 38q26.5 14 64.5 14q79 0 118 -59q39 -59 39 -193q0 -63 -13 -113.5q-13 -50.5 -37 -85.5q-24 -35 -58 -54q-34 -19 -76 -19q-29 0 -47.5 4q-18.5 4 -35.5 13l0 -205h-72zM224 447q-35 0 -59 -22.5q-24 -22.5 -34 -62.5l0 -284q14 -12 31.5 -18.5q17.5 -6.5 46.5 -6.5q53 0 83.5 54q30.5 54 30.5 154q0 42 -5.5 76q-5.5 34 -17 58.5q-11.5 24.5 -30.5 38t-46 13.5z" />
<glyph unicode="&#255;" horiz-adv-x="376" d="M183 177l21 -97h5l15 97l76 323h73l-119 -449q-14 -54 -28 -101q-14 -47 -30.5 -81.5q-16.5 -34.5 -37 -54q-20.5 -19.5 -48.5 -19.5q-28 0 -49 9l12 68q14 -5 28 -2q14 3 26.5 17q12.5 14 23 41.5q10.5 27.5 18.5 71.5l-162 500h82zM66 653q0 23 11.5 36q11.5 13 31.5 13q20 0 31.5 -13q11.5 -13 11.5 -36q0 -21 -11.5 -34q-11.5 -13 -31.5 -13q-20 0 -31.5 13q-11.5 13 -11.5 34zt0 0zM225 653q0 23 11.5 36q11.5 13 31.5 13q20 0 31.5 -13q11.5 -13 11.5 -36q0 -21 -11.5 -34q-11.5 -13 -31.5 -13q-20 0 -31.5 13t-11.5 34z" />
<glyph unicode="&#256;" horiz-adv-x="473" d="M333 196h-198l-56 -196h-74l211 711h41l211 -711h-78zM155 263h160l-61 216l-19 105h-2l-19 -107zM107 843h259v-62l-259 0z" />
<glyph unicode="&#257;" horiz-adv-x="400" d="M54 470q29 18 70.5 28q41.5 10 87.5 10q42 0 67.5 -12.5q25.5 -12.5 40 -34q14.5 -21.5 19 -49q4.5 -27.5 4.5 -57.5q0 -60 -2.5 -117q-2.5 -57 -2.5 -108q0 -38 2.5 -70.5q2.5 -32.5 9.5 -61.5l-55 0l-17 59h-4q-15 -26 -44 -45q-29 -19 -78 -19q-54 0 -88.5 37.5q-34.5 37.5 -34.5 103.5q0 43 14.5 72q14.5 29 41 47q26.5 18 63 25.5q36.5 7.5 81.5 7.5q10 0 20 0q10 0 21 -1q3 31 3 55q0 57 -17 80q-17 23 -62 23q-28 0 -61 -8.5q-33 -8.5 -55 -21.5zM271 228q-10 1 -20 1.5q-10 0.5 -20 0.5q-24 0 -47 -4q-23 -4 -41 -14q-18 -10 -28.5 -27q-10.5 -17 -10.5 -43q0 -40 19.5 -62q19.5 -22 50.5 -22q42 0 65 20q23 20 32 44zM76 643h243v-59l-243 0z" />
<glyph unicode="&#258;" horiz-adv-x="473" d="M333 196h-198l-56 -196h-74l211 711h41l211 -711h-78zM155 263h160l-61 216l-19 105h-2l-19 -107zM133 871q14 -34 42 -55q28 -21 66 -21q39 0 64.5 22.5q25.5 22.5 38.5 53.5l36 -16q-15 -63 -54.5 -94q-39.5 -31 -85.5 -31q-43 0 -84.5 29q-41.5 29 -60.5 92z" />
<glyph unicode="&#259;" horiz-adv-x="400" d="M54 470q29 18 70.5 28q41.5 10 87.5 10q42 0 67.5 -12.5q25.5 -12.5 40 -34q14.5 -21.5 19 -49q4.5 -27.5 4.5 -57.5q0 -60 -2.5 -117q-2.5 -57 -2.5 -108q0 -38 2.5 -70.5q2.5 -32.5 9.5 -61.5l-55 0l-17 59h-4q-15 -26 -44 -45q-29 -19 -78 -19q-54 0 -88.5 37.5q-34.5 37.5 -34.5 103.5q0 43 14.5 72q14.5 29 41 47q26.5 18 63 25.5q36.5 7.5 81.5 7.5q10 0 20 0q10 0 21 -1q3 31 3 55q0 57 -17 80q-17 23 -62 23q-28 0 -61 -8.5q-33 -8.5 -55 -21.5zM271 228q-10 1 -20 1.5q-10 0.5 -20 0.5q-24 0 -47 -4q-23 -4 -41 -14q-18 -10 -28.5 -27q-10.5 -17 -10.5 -43q0 -40 19.5 -62q19.5 -22 50.5 -22q42 0 65 20q23 20 32 44zM114 717q14 -36 38 -57.5q24 -21.5 53 -21.5q28 0 49.5 21q21.5 21 34.5 58l37 -15q-2 -26 -12.5 -49.5q-10.5 -23.5 -26.5 -41q-16 -17.5 -37.5 -28q-21.5 -10.5 -45.5 -10.5q-47 0 -82.5 33q-35.5 33 -46.5 93z" />
<glyph unicode="&#260;" horiz-adv-x="473" d="M333 196h-198l-56 -196h-74l211 711h41l211 -711h-21q-22 -16 -34.5 -38q-12.5 -22 -12.5 -50q1 -29 19.5 -44.5q18.5 -15.5 55.5 -0.5l10 -40q-11 -11 -31.5 -17q-20.5 -6 -39.5 -6q-40 0 -63 24q-23 24 -24 62q1 38 19 65.5q18 27.5 49 44.5l-5 0zM155 263h160l-61 216l-19 105h-2l-19 -107z" />
<glyph unicode="&#261;" horiz-adv-x="400" d="M54 470q29 18 70.5 28q41.5 10 87.5 10q42 0 67.5 -12.5q25.5 -12.5 40 -34q14.5 -21.5 19 -49q4.5 -27.5 4.5 -57.5q0 -60 -2.5 -117q-2.5 -57 -2.5 -108q0 -38 2.5 -70.5q2.5 -32.5 9.5 -61.5l-19 0q-21 -16 -33 -37.5q-12 -21.5 -12 -48.5q1 -29 19.5 -44.5q18.5 -15.5 55.5 -0.5l10 -40q-11 -11 -31.5 -17q-20.5 -6 -39.5 -6q-40 0 -63.5 24q-23.5 24 -23.5 62q0 42 22 70.5q22 28.5 57 45.5l-14 51h-4q-15 -26 -44 -45q-29 -19 -78 -19q-54 0 -88.5 37.5q-34.5 37.5 -34.5 103.5q0 43 14.5 72q14.5 29 41 47q26.5 18 63 25.5q36.5 7.5 81.5 7.5q10 0 20 0q10 0 21 -1q3 31 3 56q0 57 -17 79.5q-17 22.5 -62 22.5q-28 0 -61 -8.5q-33 -8.5 -55 -21.5zM271 228q-10 1 -20.5 1.5q-10.5 0.5 -20.5 0.5q-24 0 -47 -4q-23 -4 -40.5 -14q-17.5 -10 -28 -27q-10.5 -17 -10.5 -43q0 -40 19 -62q19 -22 50 -22q42 0 65.5 20q23.5 20 32.5 44z" />
<glyph unicode="&#262;" horiz-adv-x="458" d="M430 27q-25 -21 -63 -30q-38 -9 -80 -9q-53 0 -98 20q-45 20 -77.5 63.5q-32.5 43.5 -50.5 112.5q-18 69 -18 166q0 100 20.5 169q20.5 69 54.5 112q34 43 78.5 62q44.5 19 91.5 19q48 0 79.5 -7q31.5 -7 54.5 -17l-18 -68q-20 11 -47 17q-27 6 -62 6q-35 0 -66 -15.5q-31 -15.5 -55 -50q-24 -34.5 -38 -90.5q-14 -56 -14 -137q0 -146 50 -219.5q50 -73.5 133 -73.5q34 0 61 9.5q27 9.5 46 22.5zM331 870h99v-21l-131 -97l-61 0z" />
<glyph unicode="&#263;" horiz-adv-x="356" d="M335 25q-25 -19 -57 -28q-32 -9 -67 -9q-48 0 -81 18.5q-33 18.5 -53.5 53q-20.5 34.5 -30 83q-9.5 48.5 -9.5 107.5q0 128 45.5 195q45.5 67 130.5 67q39 0 67 -7q28 -7 48 -18v-63q-60 23 -107 23q-54 0 -81.5 -47.5q-27.5 -47.5 -27.5 -149.5q0 -41 6 -77q6 -36 20 -62.5q14 -26.5 36 -42q22 -15.5 55 -15.5q26 0 48.5 9q22.5 9 36.5 21zM232 720h78v-21l-82 -128l-43 0z" />
<glyph unicode="&#264;" horiz-adv-x="458" d="M430 27q-25 -21 -63 -30q-38 -9 -80 -9q-53 0 -98 20q-45 20 -77.5 63.5q-32.5 43.5 -50.5 112.5q-18 69 -18 166q0 100 20.5 169q20.5 69 54.5 112q34 43 78.5 62q44.5 19 91.5 19q48 0 79.5 -7q31.5 -7 54.5 -17l-18 -68q-20 11 -47 17q-27 6 -62 6q-35 0 -66 -15.5q-31 -15.5 -55 -50q-24 -34.5 -38 -90.5q-14 -56 -14 -137q0 -146 50 -219.5q50 -73.5 133 -73.5q34 0 61 9.5q27 9.5 46 22.5zM255 870h50l102 -102v-21h-66l-47 49l-15 35l-15 -34l-52 -50h-64l0 22z" />
<glyph unicode="&#265;" horiz-adv-x="356" d="M335 25q-25 -19 -57 -28q-32 -9 -67 -9q-48 0 -81 18.5q-33 18.5 -53.5 53q-20.5 34.5 -30 83q-9.5 48.5 -9.5 107.5q0 128 45.5 195q45.5 67 130.5 67q39 0 67 -7q28 -7 48 -18v-63q-60 23 -107 23q-54 0 -81.5 -47.5q-27.5 -47.5 -27.5 -149.5q0 -41 6 -77q6 -36 20 -62.5q14 -26.5 36 -42q22 -15.5 55 -15.5q26 0 48.5 9q22.5 9 36.5 21zM187 732h35l89 -182h-63l-32 66l-16 58l-17 -58l-36 -66l-59 0z" />
<glyph unicode="&#268;" horiz-adv-x="458" d="M430 27q-25 -21 -63 -30q-38 -9 -80 -9q-53 0 -98 20q-45 20 -77.5 63.5q-32.5 43.5 -50.5 112.5q-18 69 -18 166q0 100 20.5 169q20.5 69 54.5 112q34 43 78.5 62q44.5 19 91.5 19q48 0 79.5 -7q31.5 -7 54.5 -17l-18 -68q-20 11 -47 17q-27 6 -62 6q-35 0 -66 -15.5q-31 -15.5 -55 -50q-24 -34.5 -38 -90.5q-14 -56 -14 -137q0 -146 50 -219.5q50 -73.5 133 -73.5q34 0 61 9.5q27 9.5 46 22.5zM308 746h-53l-102 103v21h69l47 -50l14 -34l15 33l50 51h66l0 -22z" />
<glyph unicode="&#269;" horiz-adv-x="356" d="M335 25q-25 -19 -57 -28q-32 -9 -67 -9q-48 0 -81 18.5q-33 18.5 -53.5 53q-20.5 34.5 -30 83q-9.5 48.5 -9.5 107.5q0 128 45.5 195q45.5 67 130.5 67q39 0 67 -7q28 -7 48 -18v-63q-60 23 -107 23q-54 0 -81.5 -47.5q-27.5 -47.5 -27.5 -149.5q0 -41 6 -77q6 -36 20 -62.5q14 -26.5 36 -42q22 -15.5 55 -15.5q26 0 48.5 9q22.5 9 36.5 21zM222 550h-38l-93 182h68l31 -66l17 -58l17 58l36 66l61 0z" />
<glyph unicode="&#270;" horiz-adv-x="525" d="M64 700q16 3 35.5 4.5q19.5 1.5 39.5 2q20 0.5 39.5 1q19.5 0.5 36.5 0.5q73 0 124 -25q51 -25 83 -71.5q32 -46.5 46 -111.5q14 -65 14 -145q0 -72 -13.5 -138q-13.5 -66 -45.5 -116q-32 -50 -84.5 -80q-52.5 -30 -131.5 -30q-13 0 -33 0.5q-20 0.5 -41.5 2q-21.5 1.5 -40 2.5q-18.5 1 -28.5 3zM219 639q-10 0 -21.5 0q-11.5 0 -22.5 -1q-11 -1 -20.5 -2q-9.5 -1 -15.5 -2l0 -570q4 -1 14.5 -1.5q10.5 -0.5 22 -1q11.5 -0.5 22 -1q10.5 -0.5 15.5 -0.5q55 0 92 24q37 24 58.5 64.5q21.5 40.5 30.5 94q9 53.5 9 113.5q0 53 -8 104q-8 51 -28.5 90.5q-20.5 39.5 -56 64q-35.5 24.5 -91.5 24.5zt0 0zM244 746h-53l-102 103v21h69l47 -50l14 -34l15 33l50 51h66l0 -22z" />
<glyph unicode="&#271;" horiz-adv-x="433" d="M374 172q0 -51 1 -92.5q1 -41.5 7 -81.5l-49 0l-16 60h-4q-14 -30 -44 -50q-30 -20 -72 -20q-81 0 -120.5 63q-39.5 63 -39.5 198q0 128 48.5 194q48.5 66 133.5 66q29 0 46 -3.5q17 -3.5 37 -11.5l0 206h72zM302 421q-14 12 -31.5 17.5q-17.5 5.5 -46.5 5.5q-53 0 -82.5 -48q-29.5 -48 -29.5 -148q0 -44 5.5 -79.5q5.5 -35.5 17 -61.5q11.5 -26 30 -40q18.5 -14 45.5 -14q72 0 92 85zM504 700q-2 -29 -10 -59q-8 -30 -19 -56q-11 -26 -22.5 -45.5q-11.5 -19.5 -18.5 -28.5l-30 15q14 36 21 82q7 46 7 92z" />
<glyph unicode="&#272;" horiz-adv-x="531" d="M-1 393h71v307q16 3 35.5 4.5q19.5 1.5 39.5 2q20 0.5 39.5 1q19.5 0.5 36.5 0.5q73 0 124 -25q51 -25 83 -71.5q32 -46.5 46 -111.5q14 -65 14 -145q0 -72 -13.5 -138q-13.5 -66 -45.5 -116q-32 -50 -84.5 -80q-52.5 -30 -131.5 -30q-13 0 -33 0.5q-20 0.5 -41.5 2q-21.5 1.5 -40 2.5q-18.5 1 -28.5 3l0 335h-71zM225 639q-10 0 -21.5 0q-11.5 0 -22.5 -1q-11 -1 -20.5 -2q-9.5 -1 -15.5 -2l0 -241h117v-59h-117v-270q4 -1 14.5 -1.5q10.5 -0.5 22 -1q11.5 -0.5 22 -1q10.5 -0.5 15.5 -0.5q55 0 92 24q37 24 58.5 64.5q21.5 40.5 30.5 94q9 53.5 9 113.5q0 53 -8 104q-8 51 -28.5 90.5q-20.5 39.5 -56 64t-91.5 24.5z" />
<glyph unicode="&#273;" horiz-adv-x="434" d="M374 633h64v-59h-64v-402q0 -51 1 -92.5q1 -41.5 7 -81.5l-49 0l-16 60h-4q-14 -30 -44 -50q-30 -20 -72 -20q-81 0 -120.5 63q-39.5 63 -39.5 198q0 128 48.5 194q48.5 66 133.5 66q29 0 46 -3.5q17 -3.5 37 -11.5l0 80h-125v59h125v67h72zM302 421q-14 12 -31.5 17.5q-17.5 5.5 -46.5 5.5q-53 0 -82.5 -48q-29.5 -48 -29.5 -148q0 -44 5.5 -79.5q5.5 -35.5 17 -61.5q11.5 -26 30 -40q18.5 -14 45.5 -14q72 0 92 85z" />
<glyph unicode="&#274;" horiz-adv-x="429" d="M64 700h311v-69h-236v-237h217v-69h-217v-256h241v-69h-316zM84 843h259v-62l-259 0z" />
<glyph unicode="&#275;" horiz-adv-x="413" d="M358 34q-24 -22 -61 -34q-37 -12 -78 -12q-47 0 -81.5 18.5q-34.5 18.5 -57 53q-22.5 34.5 -33 82.5q-10.5 48 -10.5 108q0 128 47 195q47 67 133 67q28 0 55.5 -7q27.5 -7 49.5 -28q22 -21 35.5 -59q13.5 -38 13.5 -99q0 -17 -1.5 -36.5q-1.5 -19.5 -3.5 -40.5l-254 0q0 -43 7 -78q7 -35 22 -59.5q15 -24.5 38.5 -38q23.5 -13.5 58.5 -13.5q27 0 53.5 10q26.5 10 40.5 24zM302 302q2 75 -21 110q-23 35 -63 35q-46 0 -73 -35q-27 -35 -32 -110zM85 643h243v-59l-243 0z" />
<glyph unicode="&#278;" horiz-adv-x="429" d="M64 700h311v-69h-236v-237h217v-69h-217v-256h241v-69h-316zM166 797q0 21 14 36.5q14 15.5 40 15.5q26 0 40.5 -15.5q14.5 -15.5 14.5 -36.5q0 -23 -14.5 -38q-14.5 -15 -40.5 -15q-26 0 -40 15t-14 38z" />
<glyph unicode="&#279;" horiz-adv-x="413" d="M358 34q-24 -22 -61 -34q-37 -12 -78 -12q-47 0 -81.5 18.5q-34.5 18.5 -57 53q-22.5 34.5 -33 82.5q-10.5 48 -10.5 108q0 128 47 195q47 67 133 67q28 0 55.5 -7q27.5 -7 49.5 -28q22 -21 35.5 -59q13.5 -38 13.5 -99q0 -17 -1.5 -36.5q-1.5 -19.5 -3.5 -40.5l-254 0q0 -43 7 -78q7 -35 22 -59.5q15 -24.5 38.5 -38q23.5 -13.5 58.5 -13.5q27 0 53.5 10q26.5 10 40.5 24zM302 302q2 75 -21 110q-23 35 -63 35q-46 0 -73 -35q-27 -35 -32 -110zM167 652q0 24 13.5 39q13.5 15 35.5 15q22 0 36.5 -14.5q14.5 -14.5 14.5 -39.5q0 -24 -14.5 -37.5q-14.5 -13.5 -36.5 -13.5q-22 0 -35.5 14t-13.5 37z" />
<glyph unicode="&#280;" horiz-adv-x="429" d="M64 700h311v-69h-236v-237h217v-69h-217v-256h241v-69h-31q-22 -16 -34.5 -38q-12.5 -22 -12.5 -50q1 -29 19.5 -44.5q18.5 -15.5 55.5 -0.5l10 -40q-11 -11 -31.5 -17q-20.5 -6 -39.5 -6q-40 0 -63.5 24q-23.5 24 -23.5 62q0 38 18.5 65.5q18.5 27.5 49.5 44.5l-233 0z" />
<glyph unicode="&#281;" horiz-adv-x="409" d="M358 34q-19 -18 -47 -29q-22 -15 -36 -35q-18 -25 -17 -58q0 -28 18.5 -43.5q18.5 -15.5 56.5 1.5l10 -43q-12 -12 -33 -17.5q-21 -5.5 -41 -5.5q-38 0 -60 24q-22 24 -22 65q0 43 25 73q10 12 24 23q-9 -1 -17 -1q-47 0 -81.5 18.5q-34.5 18.5 -57 53q-22.5 34.5 -33 82.5q-10.5 48 -10.5 108q0 128 47 195q47 67 133 67q32 0 63 -9.5q31 -9.5 53.5 -38.5q22.5 -29 32.5 -82q10 -53 0 -140l-255 0q0 -43 7 -78q7 -35 22 -60q15 -25 39 -38.5q24 -13.5 59 -13.5q27 0 53.5 10.5q26.5 10.5 40.5 24.5zM218 448q-46 0 -73 -35.5q-27 -35.5 -32 -110.5l189 0q2 75 -21 110.5t-63 35.5z" />
<glyph unicode="&#282;" horiz-adv-x="429" d="M64 700h311v-69h-236v-237h217v-69h-217v-256h241v-69h-316zM242 746h-53l-102 103v21h69l47 -50l14 -34l15 33l50 51h66l0 -22z" />
<glyph unicode="&#283;" horiz-adv-x="413" d="M358 34q-24 -22 -61 -34q-37 -12 -78 -12q-47 0 -81.5 18.5q-34.5 18.5 -57 53q-22.5 34.5 -33 82.5q-10.5 48 -10.5 108q0 128 47 195q47 67 133 67q28 0 55.5 -7q27.5 -7 49.5 -28q22 -21 35.5 -59q13.5 -38 13.5 -99q0 -17 -1.5 -36.5q-1.5 -19.5 -3.5 -40.5l-254 0q0 -43 7 -78q7 -35 22 -59.5q15 -24.5 38.5 -38q23.5 -13.5 58.5 -13.5q27 0 53.5 10q26.5 10 40.5 24zM302 302q2 75 -21 110q-23 35 -63 35q-46 0 -73 -35q-27 -35 -32 -110zM229 550h-38l-93 182h68l31 -66l17 -58l17 58l36 66l61 0z" />
<glyph unicode="&#284;" horiz-adv-x="492" d="M257 349h193v-308q-28 -26 -72 -39.5q-44 -13.5 -89 -13.5q-56 0 -101.5 21q-45.5 21 -77.5 65.5q-32 44.5 -49.5 112.5q-17.5 68 -17.5 163q0 98 21 166.5q21 68.5 56.5 112q35.5 43.5 81 63.5q45.5 20 93.5 20q48 0 80.5 -6.5q32.5 -6.5 55.5 -17.5l-18 -68q-20 11 -47.5 17q-27.5 6 -63.5 6q-35 0 -67 -15q-32 -15 -57.5 -49.5q-25.5 -34.5 -40.5 -90.5q-15 -56 -15 -138q0 -150 47.5 -221.5q47.5 -71.5 130.5 -71.5q52 0 86 25l0 204l-129 19zM267 870h50l102 -102v-21h-66l-47 49l-15 35l-15 -34l-52 -50h-64l0 22z" />
<glyph unicode="&#285;" horiz-adv-x="432" d="M374 -23q0 -97 -43 -143q-43 -46 -125 -46q-50 0 -82 8.5q-32 8.5 -52 19.5l21 62q20 -9 44 -17q24 -8 59 -8q61 0 83.5 34q22.5 34 22.5 114v37h-3q-16 -23 -41 -36q-25 -13 -64 -13q-81 0 -119 62.5q-38 62.5 -38 196.5q0 129 49.5 195q49.5 66 146.5 66q47 0 81 -9q34 -9 60 -21zM302 428q-30 16 -77 16q-51 0 -82 -46.5q-31 -46.5 -31 -148.5q0 -42 5 -77.5q5 -35.5 17 -62q12 -26.5 30.5 -41q18.5 -14.5 45.5 -14.5q38 0 60 20q22 20 32 60zM208 732h35l89 -182h-63l-32 66l-16 58l-17 -58l-36 -66l-59 0z" />
<glyph unicode="&#286;" horiz-adv-x="492" d="M257 349h193v-308q-28 -26 -72 -39.5q-44 -13.5 -89 -13.5q-56 0 -101.5 21q-45.5 21 -77.5 65.5q-32 44.5 -49.5 112.5q-17.5 68 -17.5 163q0 98 21 166.5q21 68.5 56.5 112q35.5 43.5 81 63.5q45.5 20 93.5 20q48 0 80.5 -6.5q32.5 -6.5 55.5 -17.5l-18 -68q-20 11 -47.5 17q-27.5 6 -63.5 6q-35 0 -67 -15q-32 -15 -57.5 -49.5q-25.5 -34.5 -40.5 -90.5q-15 -56 -15 -138q0 -150 47.5 -221.5q47.5 -71.5 130.5 -71.5q52 0 86 25l0 204l-129 19zM178 871q14 -34 42 -55q28 -21 66 -21q39 0 64.5 22.5q25.5 22.5 38.5 53.5l36 -16q-15 -63 -54.5 -94q-39.5 -31 -85.5 -31q-43 0 -84.5 29q-41.5 29 -60.5 92z" />
<glyph unicode="&#287;" horiz-adv-x="432" d="M374 -23q0 -97 -43 -143q-43 -46 -125 -46q-50 0 -82 8.5q-32 8.5 -52 19.5l21 62q20 -9 44 -17q24 -8 59 -8q61 0 83.5 34q22.5 34 22.5 114v37h-3q-16 -23 -41 -36q-25 -13 -64 -13q-81 0 -119 62.5q-38 62.5 -38 196.5q0 129 49.5 195q49.5 66 146.5 66q47 0 81 -9q34 -9 60 -21zM302 428q-30 16 -77 16q-51 0 -82 -46.5q-31 -46.5 -31 -148.5q0 -42 5 -77.5q5 -35.5 17 -62q12 -26.5 30.5 -41q18.5 -14.5 45.5 -14.5q38 0 60 20q22 20 32 60zM133 717q14 -36 38 -57.5q24 -21.5 53 -21.5q28 0 49.5 21q21.5 21 34.5 58l37 -15q-2 -26 -12.5 -49.5q-10.5 -23.5 -26.5 -41q-16 -17.5 -37.5 -28q-21.5 -10.5 -45.5 -10.5q-47 0 -82.5 33q-35.5 33 -46.5 93z" />
<glyph unicode="&#290;" horiz-adv-x="492" d="M257 349h193v-308q-28 -26 -72 -39.5q-44 -13.5 -89 -13.5q-56 0 -101.5 21q-45.5 21 -77.5 65.5q-32 44.5 -49.5 112.5q-17.5 68 -17.5 163q0 98 21 166.5q21 68.5 56.5 112q35.5 43.5 81 63.5q45.5 20 93.5 20q48 0 80.5 -6.5q32.5 -6.5 55.5 -17.5l-18 -68q-20 11 -47.5 17q-27.5 6 -63.5 6q-35 0 -67 -15q-32 -15 -57.5 -49.5q-25.5 -34.5 -40.5 -90.5q-15 -56 -15 -138q0 -150 47.5 -221.5q47.5 -71.5 130.5 -71.5q52 0 86 25l0 204l-129 19zM238 -102q0 21 13 34q13 13 31 13q22 0 38 -17q16 -17 16 -58q0 -26 -7.5 -45.5q-7.5 -19.5 -18 -34q-10.5 -14.5 -22 -23q-11.5 -8.5 -20.5 -12.5l-27 27q17 13 28.5 31.5q11.5 18.5 10.5 42.5q-17 -2 -29.5 9t-12.5 33z" />
<glyph unicode="&#291;" horiz-adv-x="432" d="M374 -23q0 -97 -43 -143q-43 -46 -125 -46q-50 0 -82 8.5q-32 8.5 -52 19.5l21 62q20 -9 44 -17q24 -8 59 -8q61 0 83.5 34q22.5 34 22.5 114v37h-3q-16 -23 -41 -36q-25 -13 -64 -13q-81 0 -119 62.5q-38 62.5 -38 196.5q0 129 49.5 195q49.5 66 146.5 66q47 0 81 -9q34 -9 60 -21zM302 428q-30 16 -77 16q-51 0 -82 -46.5q-31 -46.5 -31 -148.5q0 -42 5 -77.5q5 -35.5 17 -62q12 -26.5 30.5 -41q18.5 -14.5 45.5 -14.5q38 0 60 20q22 20 32 60zM280 609q0 -21 -12.5 -34q-12.5 -13 -30.5 -13q-22 0 -38 17q-16 17 -16 58q0 24 7.5 43.5q7.5 19.5 18 34q10.5 14.5 22 24q11.5 9.5 20.5 13.5l26 -30q-16 -9 -27.5 -28.5q-11.5 -19.5 -11.5 -43.5q17 5 29.5 -7t12.5 -34z" />
<glyph unicode="&#292;" horiz-adv-x="536" d="M397 323h-258v-323h-75v700h75v-308h258v308h75v-700h-75zM244 870h50l102 -102v-21h-66l-47 49l-15 35l-15 -34l-52 -50h-64l0 22z" />
<glyph unicode="&#293;" horiz-adv-x="440" d="M315 0v304q0 70 -16.5 106.5q-16.5 36.5 -65.5 36.5q-35 0 -63.5 -25q-28.5 -25 -38.5 -63l0 -359h-72v700h72v-247h3q20 26 49.5 42.5q29.5 16.5 73.5 16.5q33 0 57.5 -9q24.5 -9 40.5 -31q16 -22 24 -58.5q8 -36.5 8 -90.5v-323zM75 870h50l102 -102v-21h-66l-47 49l-15 35l-15 -34l-52 -50h-64l0 22z" />
<glyph unicode="&#294;" horiz-adv-x="549" d="M8 585h63v115h75v-115h258v115h75v-115h63v-59h-63v-526h-75v323h-258v-323h-75v526h-63zM404 392v134h-258l0 -134z" />
<glyph unicode="&#295;" horiz-adv-x="441" d="M-4 633h64v67h72v-67h129v-59h-129v-121h3q20 26 49.5 42.5q29.5 16.5 73.5 16.5q33 0 57.5 -9q24.5 -9 40.5 -31q16 -22 24 -58.5q8 -36.5 8 -90.5v-323h-72v304q0 70 -16.5 106.5q-16.5 36.5 -65.5 36.5q-35 0 -63.5 -25q-28.5 -25 -38.5 -63l0 -359h-72v574l-64 0z" />
<glyph unicode="&#298;" horiz-adv-x="233" d="M79 700h75v-700h-75zM-13 843h259v-62l-259 0z" />
<glyph unicode="&#299;" horiz-adv-x="217" d="M72 500h72v-500h-72zM-13 643h243v-59l-243 0z" />
<glyph unicode="&#302;" horiz-adv-x="234" d="M79 700h75v-700h-13q-20 -15 -32.5 -36.5q-12.5 -21.5 -11.5 -52.5q0 -28 18 -44q18 -16 56 -1l10 -39q-12 -12 -32.5 -17.5q-20.5 -5.5 -39.5 -5.5q-38 0 -62 23q-24 23 -24 64q0 35 18.5 63.5q18.5 28.5 49.5 45.5l-12 0z" />
<glyph unicode="&#303;" horiz-adv-x="217" d="M72 500h72v-500h-14q-20 -16 -33 -38.5q-13 -22.5 -12 -50.5q0 -14 5.5 -25.5q5.5 -11.5 15 -18.5q9.5 -7 23.5 -7q14 0 32 10l9 -43q-12 -12 -33 -17.5q-21 -5.5 -41 -5.5q-38 0 -60 23.5q-22 23.5 -22 64.5q0 35 17.5 63q17.5 28 47.5 45l-7 0zM58 652q0 24 13.5 39q13.5 15 35.5 15q22 0 36.5 -14.5q14.5 -14.5 14.5 -39.5q0 -24 -14.5 -37.5q-14.5 -13.5 -36.5 -13.5q-22 0 -35.5 14t-13.5 37z" />
<glyph unicode="&#304;" horiz-adv-x="233" d="M79 700h75v-700h-75zM62 797q0 21 14 36.5q14 15.5 40 15.5q26 0 40.5 -15.5q14.5 -15.5 14.5 -36.5q0 -23 -14.5 -38q-14.5 -15 -40.5 -15q-26 0 -40 15t-14 38z" />
<glyph unicode="&#305;" horiz-adv-x="217" d="M72 500h72v-500l-72 0z" />
<glyph unicode="&#308;" horiz-adv-x="241" d="M93 700h75v-543q0 -82 -26.5 -124.5q-26.5 -42.5 -92.5 -42.5q-16 0 -38.5 4q-22.5 4 -36.5 12l16 65q10 -6 22.5 -9q12.5 -3 25.5 -3q18 0 29 8q11 8 17 22.5q6 14.5 7.5 35q1.5 20.5 1.5 46.5zM106 870h50l102 -102v-21h-66l-47 49l-15 35l-15 -34l-52 -50h-64l0 22z" />
<glyph unicode="&#309;" horiz-adv-x="215" d="M72 500h72v-527q0 -103 -33 -148.5q-33 -45.5 -107 -34.5l0 65q22 0 35.5 9q13.5 9 21 27.5q7.5 18.5 9.5 46q2 27.5 2 64.5zM99 732h35l89 -182h-63l-32 66l-16 58l-17 -58l-36 -66l-59 0z" />
<glyph unicode="&#310;" horiz-adv-x="493" d="M175 324h-36v-324h-75v700h75v-326l35 14l182 312h86l-183 -302l-35 -32l41 -40l203 -326h-95zM188 -102q0 21 13 34q13 13 31 13q22 0 38 -17q16 -17 16 -58q0 -26 -7.5 -45.5q-7.5 -19.5 -18 -34q-10.5 -14.5 -22 -23q-11.5 -8.5 -20.5 -12.5l-27 27q17 13 28.5 31.5q11.5 18.5 10.5 42.5q-17 -2 -29.5 9t-12.5 33z" />
<glyph unicode="&#311;" horiz-adv-x="388" d="M168 225h-37v-225h-72v700h72v-426l33 14l117 212h83l-118 -202l-35 -32l41 -39l129 -227h-87zM146 -102q0 21 13 34q13 13 31 13q22 0 38 -17q16 -17 16 -58q0 -26 -7.5 -45.5q-7.5 -19.5 -18 -34q-10.5 -14.5 -22 -23q-11.5 -8.5 -20.5 -12.5l-27 27q17 13 28.5 31.5q11.5 18.5 10.5 42.5q-17 -2 -29.5 9t-12.5 33z" />
<glyph unicode="&#313;" horiz-adv-x="415" d="M401 0h-337v700h75v-631h262zM173 870h99v-21l-131 -97l-61 0z" />
<glyph unicode="&#314;" horiz-adv-x="233" d="M136 119q0 -35 9.5 -50q9.5 -15 26.5 -15q21 0 49 11l7 -58q-13 -8 -36.5 -13q-23.5 -5 -42.5 -5q-38 0 -61.5 23.5q-23.5 23.5 -23.5 82.5v605h72zM162 870h99v-21l-131 -97l-61 0z" />
<glyph unicode="&#315;" horiz-adv-x="415" d="M401 0h-337v700h75v-631h262zM154 -102q0 21 13 34q13 13 31 13q22 0 38 -17q16 -17 16 -58q0 -26 -7.5 -45.5q-7.5 -19.5 -18 -34q-10.5 -14.5 -22 -23q-11.5 -8.5 -20.5 -12.5l-27 27q17 13 28.5 31.5q11.5 18.5 10.5 42.5q-17 -2 -29.5 9t-12.5 33z" />
<glyph unicode="&#316;" horiz-adv-x="233" d="M136 119q0 -35 9.5 -50q9.5 -15 26.5 -15q21 0 49 11l7 -58q-13 -8 -36.5 -13q-23.5 -5 -42.5 -5q-38 0 -61.5 23.5q-23.5 23.5 -23.5 82.5v605h72zM92 -102q0 21 13 34q13 13 31 13q22 0 38 -17q16 -17 16 -58q0 -26 -7.5 -45.5q-7.5 -19.5 -18 -34q-10.5 -14.5 -22 -23q-11.5 -8.5 -20.5 -12.5l-27 27q17 13 28.5 31.5q11.5 18.5 10.5 42.5q-17 -2 -29.5 9t-12.5 33z" />
<glyph unicode="&#317;" horiz-adv-x="415" d="M401 0h-337v700h75v-631h262zM355 700q-2 -29 -10 -59q-8 -30 -19 -56q-11 -26 -22.5 -45.5q-11.5 -19.5 -18.5 -28.5l-30 15q14 36 21 82q7 46 7 92z" />
<glyph unicode="&#318;" horiz-adv-x="233" d="M136 119q0 -35 9.5 -50q9.5 -15 26.5 -15q21 0 49 11l7 -58q-13 -8 -36.5 -13q-23.5 -5 -42.5 -5q-38 0 -61.5 23.5q-23.5 23.5 -23.5 82.5v605h72zM266 700q-2 -29 -10 -59q-8 -30 -19 -56q-11 -26 -22.5 -45.5q-11.5 -19.5 -18.5 -28.5l-30 15q14 36 21 82q7 46 7 92z" />
<glyph unicode="&#321;" horiz-adv-x="418" d="M15 290l52 48v362h75v-293l90 84v-83l-90 -82v-257h262v-69h-337v258l-52 -47z" />
<glyph unicode="&#322;" horiz-adv-x="234" d="M8 288l60 55v357h72v-290l85 79v-83l-85 -77v-210q0 -35 9.5 -50q9.5 -15 26.5 -15q21 0 49 11l7 -58q-13 -8 -36.5 -13q-23.5 -5 -42.5 -5q-38 0 -61.5 23.5q-23.5 23.5 -23.5 82.5v168l-60 -54z" />
<glyph unicode="&#323;" horiz-adv-x="538" d="M171 444l-43 110h-3l11 -110v-444h-72v711h45l259 -454l41 -105h4l-11 105v443h72v-711h-46zM327 870h99v-21l-131 -97l-61 0z" />
<glyph unicode="&#324;" horiz-adv-x="439" d="M315 0v305q0 75 -17.5 108.5q-17.5 33.5 -62.5 33.5q-40 0 -66 -24q-26 -24 -38 -59l0 -364h-72v500h52l13 -53h3q19 27 51.5 46q32.5 19 77.5 19q32 0 56.5 -9q24.5 -9 41 -30.5q16.5 -21.5 25 -57.5q8.5 -36 8.5 -91v-324zM241 720h78v-21l-82 -128l-43 0z" />
<glyph unicode="&#325;" horiz-adv-x="538" d="M171 444l-43 110h-3l11 -110v-444h-72v711h45l259 -454l41 -105h4l-11 105v443h72v-711h-46zM223 -102q0 21 13 34q13 13 31 13q22 0 38 -17q16 -17 16 -58q0 -26 -7.5 -45.5q-7.5 -19.5 -18 -34q-10.5 -14.5 -22 -23q-11.5 -8.5 -20.5 -12.5l-27 27q17 13 28.5 31.5q11.5 18.5 10.5 42.5q-17 -2 -29.5 9t-12.5 33z" />
<glyph unicode="&#326;" horiz-adv-x="439" d="M315 0v305q0 75 -17.5 108.5q-17.5 33.5 -62.5 33.5q-40 0 -66 -24q-26 -24 -38 -59l0 -364h-72v500h52l13 -53h3q19 27 51.5 46q32.5 19 77.5 19q32 0 56.5 -9q24.5 -9 41 -30.5q16.5 -21.5 25 -57.5q8.5 -36 8.5 -91v-324zM171 -102q0 21 13 34q13 13 31 13q22 0 38 -17q16 -17 16 -58q0 -26 -7.5 -45.5q-7.5 -19.5 -18 -34q-10.5 -14.5 -22 -23q-11.5 -8.5 -20.5 -12.5l-27 27q17 13 28.5 31.5q11.5 18.5 10.5 42.5q-17 -2 -29.5 9t-12.5 33z" />
<glyph unicode="&#327;" horiz-adv-x="538" d="M171 444l-43 110h-3l11 -110v-444h-72v711h45l259 -454l41 -105h4l-11 105v443h72v-711h-46zM295 746h-53l-102 103v21h69l47 -50l14 -34l15 33l50 51h66l0 -22z" />
<glyph unicode="&#328;" horiz-adv-x="439" d="M315 0v305q0 75 -17.5 108.5q-17.5 33.5 -62.5 33.5q-40 0 -66 -24q-26 -24 -38 -59l0 -364h-72v500h52l13 -53h3q19 27 51.5 46q32.5 19 77.5 19q32 0 56.5 -9q24.5 -9 41 -30.5q16.5 -21.5 25 -57.5q8.5 -36 8.5 -91v-324zM237 550h-38l-93 182h68l31 -66l17 -58l17 58l36 66l61 0z" />
<glyph unicode="&#332;" horiz-adv-x="549" d="M43 350q0 178 57 270q57 92 174 92q63 0 107 -25.5q44 -25.5 71.5 -72.5q27.5 -47 40.5 -114q13 -67 13 -150q0 -178 -57.5 -270q-57.5 -92 -174.5 -92q-62 0 -106 25.5q-44 25.5 -72 72.5q-28 47 -40.5 114q-12.5 67 -12.5 150zt0 0zM122 350q0 -59 8.5 -112q8.5 -53 26.5 -93q18 -40 47 -64q29 -24 70 -24q75 0 114 72q39 72 39 221q0 58 -8.5 111q-8.5 53 -26.5 93.5q-18 40.5 -47 64.5q-29 24 -71 24q-74 0 -113 -72q-39 -72 -39 -221zt0 0zM149 843h259v-62l-259 0z" />
<glyph unicode="&#333;" horiz-adv-x="432" d="M37 250q0 135 46.5 198.5q46.5 63.5 132.5 63.5q92 0 135.5 -65q43.5 -65 43.5 -197q0 -136 -47 -199q-47 -63 -132 -63q-92 0 -135.5 65q-43.5 65 -43.5 197zt0 0zM112 250q0 -44 5.5 -80q5.5 -36 18 -62q12.5 -26 32.5 -40.5q20 -14.5 48 -14.5q52 0 78 46.5q26 46.5 26 150.5q0 43 -5.5 79.5q-5.5 36.5 -18 62.5q-12.5 26 -32.5 40.5q-20 14.5 -48 14.5q-51 0 -77.5 -47q-26.5 -47 -26.5 -150zt0 0zM94 643h243v-59l-243 0z" />
<glyph unicode="&#336;" horiz-adv-x="549" d="M43 350q0 178 57 270q57 92 174 92q63 0 107 -25.5q44 -25.5 71.5 -72.5q27.5 -47 40.5 -114q13 -67 13 -150q0 -178 -57.5 -270q-57.5 -92 -174.5 -92q-62 0 -106 25.5q-44 25.5 -72 72.5q-28 47 -40.5 114q-12.5 67 -12.5 150zt0 0zM122 350q0 -59 8.5 -112q8.5 -53 26.5 -93q18 -40 47 -64q29 -24 70 -24q75 0 114 72q39 72 39 221q0 58 -8.5 111q-8.5 53 -26.5 93.5q-18 40.5 -47 64.5q-29 24 -71 24q-74 0 -113 -72q-39 -72 -39 -221zt0 0zM239 850h81v-16l-80 -93h-52zM375 850h86v-16l-115 -93l-52 0z" />
<glyph unicode="&#337;" horiz-adv-x="432" d="M37 250q0 135 46.5 198.5q46.5 63.5 132.5 63.5q92 0 135.5 -65q43.5 -65 43.5 -197q0 -136 -47 -199q-47 -63 -132 -63q-92 0 -135.5 65q-43.5 65 -43.5 197zt0 0zM112 250q0 -44 5.5 -80q5.5 -36 18 -62q12.5 -26 32.5 -40.5q20 -14.5 48 -14.5q52 0 78 46.5q26 46.5 26 150.5q0 43 -5.5 79.5q-5.5 36.5 -18 62.5q-12.5 26 -32.5 40.5q-20 14.5 -48 14.5q-51 0 -77.5 -47q-26.5 -47 -26.5 -150zt0 0zM164 700h69v-16l-58 -113h-39zM287 700h75v-16l-92 -113l-42 0z" />
<glyph unicode="&#338;" horiz-adv-x="748" d="M383 623q-22 11 -50 15.5q-28 4.5 -58 4.5q-73 0 -113 -72q-40 -72 -40 -221q0 -59 8.5 -112q8.5 -53 27.5 -93q19 -40 49 -64q30 -24 73 -24q23 0 47 2q24 2 56 14zM383 0q-20 -5 -48 -8.5q-28 -3.5 -62 -3.5q-60 0 -103.5 25.5q-43.5 25.5 -71.5 73q-28 47.5 -41.5 114q-13.5 66.5 -13.5 149.5q0 177 58.5 269.5q58.5 92.5 171.5 92.5q36 0 60.5 -3.5q24.5 -3.5 49.5 -8.5l311 0v-69h-236v-237h216v-69h-216v-256h241l0 -69z" />
<glyph unicode="&#339;" horiz-adv-x="692" d="M112 250q0 -39 5.5 -74.5q5.5 -35.5 18 -62.5q12.5 -27 32.5 -43.5q20 -16.5 48 -16.5q103 0 103 197q0 39 -5.5 74.5q-5.5 35.5 -17.5 63q-12 27.5 -32 43.5q-20 16 -48 16q-104 0 -104 -197zt0 0zM355 75q-43 -87 -140 -87q-91 0 -134.5 68q-43.5 68 -43.5 194q0 128 46.5 195q46.5 67 132.5 67q51 0 85.5 -22.5q34.5 -22.5 54.5 -63.5q20 38 55.5 62q35.5 24 84.5 24q28 0 55.5 -7.5q27.5 -7.5 49.5 -28.5q22 -21 35.5 -59q13.5 -38 13.5 -99q0 -17 -1.5 -36q-1.5 -19 -3.5 -40l-256 0q1 -87 30.5 -138.5q29.5 -51.5 97.5 -51.5q27 0 55 11q28 11 42 25l26 -53q-24 -23 -62.5 -35q-38.5 -12 -80.5 -12q-50 0 -86 24q-36 24 -56 63zt0 0zM496 448q-45 0 -72.5 -36q-27.5 -36 -32.5 -111l190 0q2 75 -21 111t-64 36z" />
<glyph unicode="&#340;" horiz-adv-x="480" d="M64 693q33 8 72.5 11.5q39.5 3.5 72.5 3.5q39 0 74 -9.5q35 -9.5 61 -32q26 -22.5 41.5 -59q15.5 -36.5 15.5 -91.5q0 -83 -34.5 -133q-34.5 -50 -91.5 -67l38 -37l138 -279h-87l-150 305l-75 15v-320h-75zM139 370h60q57 0 90 35q33 35 33 107q0 55 -27.5 91q-27.5 36 -81.5 36q-20 0 -41.5 -1.5q-21.5 -1.5 -32.5 -4.5zM255 870h99v-21l-131 -97l-61 0z" />
<glyph unicode="&#341;" horiz-adv-x="274" d="M59 500h51l13 -53h3q14 29 36.5 45.5q22.5 16.5 54.5 16.5q23 0 52 -9l-14 -73q-26 9 -46 9q-32 0 -52 -18.5q-20 -18.5 -26 -49.5l0 -368h-72zM157 720h78v-21l-82 -128l-43 0z" />
<glyph unicode="&#342;" horiz-adv-x="480" d="M64 693q33 8 72.5 11.5q39.5 3.5 72.5 3.5q39 0 74 -9.5q35 -9.5 61 -32q26 -22.5 41.5 -59q15.5 -36.5 15.5 -91.5q0 -83 -34.5 -133q-34.5 -50 -91.5 -67l38 -37l138 -279h-87l-150 305l-75 15v-320h-75zM139 370h60q57 0 90 35q33 35 33 107q0 55 -27.5 91q-27.5 36 -81.5 36q-20 0 -41.5 -1.5q-21.5 -1.5 -32.5 -4.5zM192 -102q0 21 13 34q13 13 31 13q22 0 38 -17q16 -17 16 -58q0 -26 -7.5 -45.5q-7.5 -19.5 -18 -34q-10.5 -14.5 -22 -23q-11.5 -8.5 -20.5 -12.5l-27 27q17 13 28.5 31.5q11.5 18.5 10.5 42.5q-17 -2 -29.5 9t-12.5 33z" />
<glyph unicode="&#343;" horiz-adv-x="274" d="M59 500h51l13 -53h3q14 29 36.5 45.5q22.5 16.5 54.5 16.5q23 0 52 -9l-14 -73q-26 9 -46 9q-32 0 -52 -18.5q-20 -18.5 -26 -49.5l0 -368h-72zM63 -102q0 21 13 34q13 13 31 13q22 0 38 -17q16 -17 16 -58q0 -26 -7.5 -45.5q-7.5 -19.5 -18 -34q-10.5 -14.5 -22 -23q-11.5 -8.5 -20.5 -12.5l-27 27q17 13 28.5 31.5q11.5 18.5 10.5 42.5q-17 -2 -29.5 9t-12.5 33z" />
<glyph unicode="&#344;" horiz-adv-x="480" d="M64 693q33 8 72.5 11.5q39.5 3.5 72.5 3.5q39 0 74 -9.5q35 -9.5 61 -32q26 -22.5 41.5 -59q15.5 -36.5 15.5 -91.5q0 -83 -34.5 -133q-34.5 -50 -91.5 -67l38 -37l138 -279h-87l-150 305l-75 15v-320h-75zM139 370h60q57 0 90 35q33 35 33 107q0 55 -27.5 91q-27.5 36 -81.5 36q-20 0 -41.5 -1.5q-21.5 -1.5 -32.5 -4.5zM228 746h-53l-102 103v21h69l47 -50l14 -34l15 33l50 51h66l0 -22z" />
<glyph unicode="&#345;" horiz-adv-x="274" d="M59 500h51l13 -53h3q14 29 36.5 45.5q22.5 16.5 54.5 16.5q23 0 52 -9l-14 -73q-26 9 -46 9q-32 0 -52 -18.5q-20 -18.5 -26 -49.5l0 -368h-72zM169 550h-38l-93 182h68l31 -66l17 -58l17 58l36 66l61 0z" />
<glyph unicode="&#346;" horiz-adv-x="428" d="M59 93q19 -13 53.5 -24.5q34.5 -11.5 78.5 -11.5q56 0 91 27.5q35 27.5 35 86.5q0 39 -20 68q-20 29 -50 53.5q-30 24.5 -64.5 48q-34.5 23.5 -64.5 52q-30 28.5 -50 65.5q-20 37 -20 89q0 84 50.5 124.5q50.5 40.5 131.5 40.5q50 0 89 -9q39 -9 63 -23v-66q-42 11 -75.5 20q-33.5 9 -77.5 9q-54 0 -80 -26.5q-26 -26.5 -26 -66.5q0 -35 20 -62q20 -27 50 -51q30 -24 64.5 -48.5q34.5 -24.5 64.5 -54.5q30 -30 50 -68q20 -38 20 -90q0 -88 -52 -138q-52 -50 -147 -50q-60 0 -98.5 11q-38.5 11 -61.5 25zM279 870h99v-21l-131 -97l-61 0z" />
<glyph unicode="&#347;" horiz-adv-x="338" d="M51 82q20 -12 47.5 -20.5q27.5 -8.5 56.5 -8.5q33 0 56 16.5q23 16.5 23 53.5q0 31 -14 51q-14 20 -35.5 36q-21.5 16 -46.5 29.5q-25 13.5 -46.5 32.5q-21.5 19 -35.5 45q-14 26 -14 66q0 64 34.5 96.5q34.5 32.5 97.5 32.5q41 0 71 -7.5q30 -7.5 52 -20.5l-19 -60q-19 10 -44 16.5q-25 6.5 -51 6.5q-36 0 -52.5 -15q-16.5 -15 -16.5 -47q0 -25 14 -42.5q14 -17.5 35.5 -32q21.5 -14.5 46.5 -29.5q25 -15 46.5 -35.5q21.5 -20.5 35.5 -49q14 -28.5 14 -71.5q0 -28 -9 -53q-9 -25 -27.5 -43.5q-18.5 -18.5 -46 -29.5q-27.5 -11 -64.5 -11q-44 0 -76 8.5q-32 8.5 -54 22.5zM190 720h78v-21l-82 -128l-43 0z" />
<glyph unicode="&#348;" horiz-adv-x="428" d="M59 93q19 -13 53.5 -24.5q34.5 -11.5 78.5 -11.5q56 0 91 27.5q35 27.5 35 86.5q0 39 -20 68q-20 29 -50 53.5q-30 24.5 -64.5 48q-34.5 23.5 -64.5 52q-30 28.5 -50 65.5q-20 37 -20 89q0 84 50.5 124.5q50.5 40.5 131.5 40.5q50 0 89 -9q39 -9 63 -23v-66q-42 11 -75.5 20q-33.5 9 -77.5 9q-54 0 -80 -26.5q-26 -26.5 -26 -66.5q0 -35 20 -62q20 -27 50 -51q30 -24 64.5 -48.5q34.5 -24.5 64.5 -54.5q30 -30 50 -68q20 -38 20 -90q0 -88 -52 -138q-52 -50 -147 -50q-60 0 -98.5 11q-38.5 11 -61.5 25zM205 870h50l102 -102v-21h-66l-47 49l-15 35l-15 -34l-52 -50h-64l0 22z" />
<glyph unicode="&#349;" horiz-adv-x="338" d="M51 82q20 -12 47.5 -20.5q27.5 -8.5 56.5 -8.5q33 0 56 16.5q23 16.5 23 53.5q0 31 -14 51q-14 20 -35.5 36q-21.5 16 -46.5 29.5q-25 13.5 -46.5 32.5q-21.5 19 -35.5 45q-14 26 -14 66q0 64 34.5 96.5q34.5 32.5 97.5 32.5q41 0 71 -7.5q30 -7.5 52 -20.5l-19 -60q-19 10 -44 16.5q-25 6.5 -51 6.5q-36 0 -52.5 -15q-16.5 -15 -16.5 -47q0 -25 14 -42.5q14 -17.5 35.5 -32q21.5 -14.5 46.5 -29.5q25 -15 46.5 -35.5q21.5 -20.5 35.5 -49q14 -28.5 14 -71.5q0 -28 -9 -53q-9 -25 -27.5 -43.5q-18.5 -18.5 -46 -29.5q-27.5 -11 -64.5 -11q-44 0 -76 8.5q-32 8.5 -54 22.5zM161 732h35l89 -182h-63l-32 66l-16 58l-17 -58l-36 -66l-59 0z" />
<glyph unicode="&#350;" horiz-adv-x="428" d="M59 93q19 -13 53.5 -24.5q34.5 -11.5 78.5 -11.5q56 0 91 27.5q35 27.5 35 86.5q0 39 -20 68q-20 29 -50 53.5q-30 24.5 -64.5 48q-34.5 23.5 -64.5 52q-30 28.5 -50 65.5q-20 37 -20 89q0 84 50.5 124.5q50.5 40.5 131.5 40.5q50 0 89 -9q39 -9 63 -23v-66q-42 11 -75.5 20q-33.5 9 -77.5 9q-54 0 -80 -26.5q-26 -26.5 -26 -66.5q0 -35 20 -62q20 -27 50 -51q30 -24 64.5 -48.5q34.5 -24.5 64.5 -54.5q30 -30 50 -68q20 -38 20 -90q0 -78 -41.5 -126q-41.5 -48 -116.5 -59l-15 -34q65 -15 65 -75q0 -39 -28.5 -64.5q-28.5 -25.5 -76.5 -25.5q-20 0 -37 4l7 39q23 -2 36.5 1q13.5 3 20.5 9q7 6 9 13.5q2 7.5 2 14.5q0 28 -69 37l34 78q-56 2 -92 12q-36 10 -57 24z" />
<glyph unicode="&#351;" horiz-adv-x="338" d="M51 82q20 -12 47.5 -20q27.5 -8 56.5 -8q33 0 56 16q23 16 23 53q0 31 -14 51q-14 20 -35.5 36q-21.5 16 -46.5 29.5q-25 13.5 -46.5 32.5q-21.5 19 -35.5 45q-14 26 -14 66q0 64 34.5 96.5q34.5 32.5 97.5 32.5q41 0 71 -7.5q30 -7.5 52 -20.5l-19 -60q-19 10 -44 16.5q-25 6.5 -51 6.5q-36 0 -52.5 -15q-16.5 -15 -16.5 -47q0 -25 14 -42.5q14 -17.5 35.5 -32q21.5 -14.5 46.5 -29.5q25 -15 46.5 -35.5q21.5 -20.5 35.5 -49q14 -28.5 14 -71.5q0 -50 -29 -88q-29 -38 -87 -46l-15 -34q65 -15 65 -75q0 -39 -28.5 -64.5q-28.5 -25.5 -76.5 -25.5q-20 0 -37 4l7 39q23 -2 36.5 1q13.5 3 20.5 9q7 6 9 13.5q2 7.5 2 14.5q0 28 -69 37l35 79q-36 2 -63.5 10q-27.5 8 -46.5 20z" />
<glyph unicode="&#352;" horiz-adv-x="428" d="M59 93q19 -13 53.5 -24.5q34.5 -11.5 78.5 -11.5q56 0 91 27.5q35 27.5 35 86.5q0 39 -20 68q-20 29 -50 53.5q-30 24.5 -64.5 48q-34.5 23.5 -64.5 52q-30 28.5 -50 65.5q-20 37 -20 89q0 84 50.5 124.5q50.5 40.5 131.5 40.5q50 0 89 -9q39 -9 63 -23v-66q-42 11 -75.5 20q-33.5 9 -77.5 9q-54 0 -80 -26.5q-26 -26.5 -26 -66.5q0 -35 20 -62q20 -27 50 -51q30 -24 64.5 -48.5q34.5 -24.5 64.5 -54.5q30 -30 50 -68q20 -38 20 -90q0 -88 -52 -138q-52 -50 -147 -50q-60 0 -98.5 11q-38.5 11 -61.5 25zM259 746h-53l-102 103v21h69l47 -50l14 -34l15 33l50 51h66l0 -22z" />
</font>
</defs>
</svg>
